Elvis Presley - If I Can Dream: Elvis Presley with the Royal Philharmonic Orchestra (2015) [Official Digital Download 24/96]

Posted By: Pisulik
Elvis Presley - If I Can Dream: Elvis Presley with the Royal Philharmonic Orchestra (2015) [Official Digital Download 24/96]

Elvis Presley - If I Can Dream: Elvis Presley with the Royal Philharmonic Orchestra (2015)
FLAC (tracks) 24-bit/96 kHz | Time - 49:35 minutes | 1,02 GB
Studio Master, Official Digital Download | Artwork: Front cover

If I Can Dream: Elvis Presley With The Royal Philharmonic Orchestra is a remarkable new album featuring classic Elvis vocal performances with brand-new orchestral accompaniment, along with a duet with Michael Bublé on Fever. An exciting revisit of Elvis’ work, ‘If I Can Dream’ focuses on the iconic artist’s unmistakable voice, emphasising the pure power of The King of Rock and Roll. Recorded at Abbey Road Studios in London, the 14-track album features Elvis’ most dramatic original performances augmented with lush new arrangements by The Royal Philharmonic Orchestra. “This would be a dream come true for Elvis,” Priscilla Presley says of the project. “He would have loved to play with such a prestigious symphony orchestra. The music…the force that you feel with his voice and the orchestra is exactly what he would have done.”

Tracklist:

01. Burning Love
02. It's Now or Never
03. Love Me Tender
04. Fever feat. Michael Bublé
05. Bridge Over Troubled Water
06. And the Grass Won't Pay No Mind
07. You've Lost That Lovin' Feelin'
08. There's Always Me
09. Can't Help Falling In Love
10. In the Ghetto
11. How Great Thou Art
12. Steamroller Blues
13. An American Trilogy
14. If I Can Dream

foobar2000 1.3.7 / Dynamic Range Meter 1.1.1
log date: 2018-02-13 05:01:49

––––––––––––––––––––––––––––––––––––––––
Analyzed: Elvis Presley / If I Can Dream: Elvis Presley with the Royal Philharmonic Orchestra
––––––––––––––––––––––––––––––––––––––––

DR Peak RMS Duration Track
––––––––––––––––––––––––––––––––––––––––
DR5 -0.64 dB -7.39 dB 3:31 01-Burning Love
DR5 -0.67 dB -7.38 dB 3:18 02-It's Now or Never
DR6 -0.70 dB -10.98 dB 3:26 03-Love Me Tender
DR7 -0.66 dB -9.61 dB 4:26 04-Fever feat Michael Bublé
DR5 -0.67 dB -9.51 dB 4:37 05-Bridge Over Troubled Water
DR6 -0.67 dB -8.85 dB 3:41 06-And the Grass Won't Pay No Mind
DR5 -0.68 dB -9.18 dB 4:00 07-You've Lost That Lovin' Feelin'
DR5 0.00 dB -9.72 dB 2:21 08-There's Always Me
DR5 -0.70 dB -8.28 dB 3:19 09-Can't Help Falling In Love
DR6 -0.73 dB -10.30 dB 3:13 10-In the Ghetto
DR4 -0.69 dB -8.39 dB 3:08 11-How Great Thou Art
DR5 -0.68 dB -7.97 dB 3:10 12-Steamroller Blues
DR6 -0.68 dB -11.67 dB 4:33 13-An American Trilogy
DR5 -0.68 dB -9.27 dB 3:12 14-If I Can Dream
––––––––––––––––––––––––––––––––––––––––

Number of tracks: 14
Official DR value: DR5

Samplerate: 96000 Hz
Channels: 2
Bits per sample: 24
Bitrate: 3050 kbps
Codec: FLAC
================================================================================


All thanks go to the original releaser