Emanuel Ruffler - Three Words to Thrive (2020) [Official Digital Download 24/96]

Posted By: pyatak
Emanuel Ruffler - Three Words to Thrive (2020) [Official Digital Download 24/96]

Emanuel Ruffler - Three Words to Thrive (2020) [Official Digital Download 24/96]
FLAC (tracks) 24-bit/96 kHz | Front Cover | Time - 37:33 minutes | 807 MB
Jazz | Label: Enja Horst Weber, Official Digital Download

'Three words to thrive by' is as interesting for its uplifting jazz music as its is for the creative process behind the album. The trio of Emanuel Ruffler (piano), Rashaan Carter (bass) and Timothy Angulo (drums) starts off with discussions that becomes ideas, that then inspire them to make music.

”This trio is born of conversation. It’s origin, thought and dialogue is rooted in listening, sharing, and learning. We’ve developed a fairly regular routine in which a discussion precludes and completes a rehearsal or a recording. We’ve developed a trust that ushers these exchanges through a wide range of ideas and topics. These conversations forms the core of the music,” explains pianist Ruffler.

Their first single, “Jazz Dakar” was released on the 30th of October and was born after all three went to West Africa, where they were deeply touched by the history of slavery. The Gospel singer and activist, Valerie Troutt completes the piece with a melody originally meant for a horn. Troutt’s voice has similarities with Anita Baker’s and it is hard not to wish for more.

TRACKLIST

01. Emanuel Ruffler - Elephant
02. Emanuel Ruffler - The Infinite
03. Emanuel Ruffler - Polo
04. Emanuel Ruffler - Out of Alignment
05. Emanuel Ruffler - Three Words to Thrive By
06. Emanuel Ruffler - Street Scenes
07. Emanuel Ruffler - Thunder
08. Emanuel Ruffler - Jazz Dakar

foobar2000 1.6.2 / Dynamic Range Meter 1.1.1
log date: 2020-11-21 17:52:28

––––––––––––––––––––––––––––––––––––––––
Analyzed: Emanuel Ruffler / Three Words to Thrive
––––––––––––––––––––––––––––––––––––––––

DR Peak RMS Duration Track
––––––––––––––––––––––––––––––––––––––––
DR14 0.00 dB -16.56 dB 5:20 01-Elephant
DR13 0.00 dB -16.72 dB 4:02 02-The Infinite
DR13 0.00 dB -15.77 dB 6:53 03-Polo
DR14 0.00 dB -16.95 dB 5:18 04-Out of Alignment
DR13 0.00 dB -16.94 dB 2:33 05-Three Words to Thrive By
DR14 0.00 dB -15.71 dB 3:08 06-Street Scenes
DR12 0.00 dB -16.10 dB 3:39 07-Thunder
DR11 0.00 dB -13.41 dB 6:41 08-Jazz Dakar
––––––––––––––––––––––––––––––––––––––––

Number of tracks: 8
Official DR value: DR13

Samplerate: 96000 Hz
Channels: 2
Bits per sample: 24
Bitrate: 3053 kbps
Codec: FLAC
================================================================================



Thanks to the Original customer.