Emilia Anastazja - Blue (2019) [Official Digital Download]

Posted By: Pisulik
Emilia Anastazja - Blue (2019) [Official Digital Download]

Emilia Anastazja - Blue (2019)
FLAC (tracks) 24-bit/44.1 kHz | Time - 36:18 minutes | 457 MB
Studio Master, Official Digital Download | Artwork: Front cover

Partially circumcised, partially fragile, Emilia Anastasia always finds her way to the heart of her listeners. She sings about love and her disappearance, caring and not wanting to be alone.

Tracklist:

01. Be Together
02. Hello
03. Under My Skin
04. Love in the Age of Technology
05. This Time
06. Sometimes
07. The One
08. All Is New
09. I Don't Care
10. Feed You
11. I Like It

foobar2000 1.3.7 / Dynamic Range Meter 1.1.1
log date: 2019-03-14 23:17:01

––––––––––––––––––––––––––––––––––––––––
Analyzed: Emilia Anastazja / Blue
––––––––––––––––––––––––––––––––––––––––

DR Peak RMS Duration Track
––––––––––––––––––––––––––––––––––––––––
DR10 -0.32 dB -13.31 dB 4:06 01-Be Together
DR10 -0.32 dB -11.80 dB 4:16 02-Hello
DR12 -0.32 dB -13.15 dB 3:20 03-Under My Skin
DR11 -0.32 dB -13.63 dB 3:10 04-Love in the Age of Technology
DR11 -0.32 dB -14.75 dB 4:50 05-This Time
DR12 -0.32 dB -14.86 dB 3:54 06-Sometimes
DR11 -0.32 dB -12.70 dB 3:23 07-The One
DR13 -0.32 dB -15.86 dB 4:05 08-All Is New
DR11 -0.32 dB -14.87 dB 3:54 09-I Don't Care
DR11 -0.32 dB -13.37 dB 4:21 10-Feed You
DR12 -0.64 dB -14.37 dB 3:55 11-I Like It
––––––––––––––––––––––––––––––––––––––––

Number of tracks: 11
Official DR value: DR11

Samplerate: 44100 Hz
Channels: 2
Bits per sample: 24
Bitrate: 1399 kbps
Codec: FLAC
================================================================================


All thanks go to the original releaser