Tags
Language
Tags

Face to Face - Hold Fast (Acoustic Sessions) (2018) [Official Digital Download]

Posted By: Pisulik
Face to Face - Hold Fast (Acoustic Sessions) (2018) [Official Digital Download]

Face to Face - Hold Fast (Acoustic Sessions) (2018)
FLAC (tracks) 24-bit/44.1 kHz | Time - 33:11 minutes | 396 MB
Studio Master, Official Digital Download | Artwork: Front cover

Face to Face have announced an album called Hold Fast (Acoustic Sessions), which will contain acoustic versions of songs from throughout their discography. Face to Face have ten LPs under their belts and on this album, they present ten acoustic versions of some of the classic tracks from those albums including a stripped-down version of their radio hit "Disconnnected."

Tracklist:

01. All for Nothing
02. Disconnected
03. Shame on Me
04. Keep Your Chin Up
05. Velocity
06. Aok
07. Don't Turn Away
08. Blind
09. Ordinary
10. Bill of Goods

foobar2000 1.3.7 / Dynamic Range Meter 1.1.1
log date: 2018-07-26 23:27:06

––––––––––––––––––––––––––––––––––––––––
Analyzed: Face to Face / Hold Fast (Acoustic Sessions)
––––––––––––––––––––––––––––––––––––––––

DR Peak RMS Duration Track
––––––––––––––––––––––––––––––––––––––––
DR8 -0.81 dB -10.95 dB 3:10 01-All for Nothing
DR8 -0.45 dB -10.81 dB 4:05 02-Disconnected
DR8 -0.40 dB -10.87 dB 3:22 03-Shame on Me
DR8 -0.36 dB -10.59 dB 3:41 04-Keep Your Chin Up
DR8 -0.33 dB -10.52 dB 3:17 05-Velocity
DR8 -0.60 dB -10.91 dB 3:37 06-Aok
DR8 -0.46 dB -10.24 dB 2:48 07-Don't Turn Away
DR8 -0.33 dB -10.59 dB 3:26 08-Blind
DR9 0.00 dB -11.03 dB 2:54 09-Ordinary
DR9 -0.23 dB -10.62 dB 2:55 10-Bill of Goods
––––––––––––––––––––––––––––––––––––––––

Number of tracks: 10
Official DR value: DR8

Samplerate: 44100 Hz
Channels: 2
Bits per sample: 24
Bitrate: 1741 kbps
Codec: FLAC
================================================================================


All thanks go to the original releaser