Frank Sinatra - Moonlight Sinatra (1966) [2014 Official Digital Download 24bit/44.1kHz]

Posted By: flac jacket
Frank Sinatra - Moonlight Sinatra (1966) [2014 Official Digital Download 24bit/44.1kHz]

Frank Sinatra - Moonlight Sinatra (1966) [2014 Official Digital Download 24bit/44.1kHz]
FLAC 24bit/44.1kHz (tracks) | Cover Only | 361 MB | 31:49 minutes
Vocal Jazz, Classic Pop | Studio Master, Official Digital Download | Hosted On: NirtoFlare

Moonlight Sinatra is a studio album by Frank Sinatra. All of the tracks on the album are centered on the moon, and were arranged and conducted by Nelson Riddle and his orchestra.

Driven by a set of lush, sparkling Nelson Riddle arrangements, Moonlight Sinatra is a low-key, charming collection. Although the basic concept is somewhat nebulous – all of the songs have the word "moon" in the title – Riddle wrote a series of charts that suggest a warm, lovely evening with a variety of tones and moods, from light Latin rhythms to sweet ballads. While the album is a minor entry in Sinatra's catalog, it is nevertheless an enjoyable, romantic listen. Half of the songs on Moonlight Sinatra were originally associated with Sinatra's idol Bing Crosby, making the album something of a loose tribute. Reviewed by Stephen Thomas Erlewine of allmusic.com


Track Listing:

01. Moonlight Becomes You
02. Moon Song
03. Moonlight Serenade
04. Reaching For The Moon
05. I Wished On The Moon
06. Oh, You Crazy Moon
07. The Moon Got In My Eyes
08. Moonlight Mood
09. Moon Love
10. The Moon Was Yellow (And The Night Was Young)


Album Released: March 1966


foobar2000 1.3.2 / Dynamic Range Meter 1.1.0
log date: 2015-04-16 00:15:28

––––––––––––––––––––––––––––––––––––––––
Analyzed: Frank Sinatra / Moonlight Sinatra
––––––––––––––––––––––––––––––––––––––––

DR Peak RMS Duration Track
––––––––––––––––––––––––––––––––––––––––
DR11 -0.27 dB -14.01 dB 2:46 01-Moonlight Becomes You
DR11 -2.02 dB -16.66 dB 3:03 02-Moon Song
DR10 -0.22 dB -13.68 dB 3:27 03-Moonlight Serenade
DR10 -0.20 dB -13.05 dB 3:05 04-Reaching For The Moon
DR10 -0.26 dB -14.49 dB 2:53 05-I Wished On The Moon
DR11 0.00 dB -12.99 dB 3:12 06-Oh, You Crazy Moon
DR11 -0.29 dB -14.59 dB 2:52 07-The Moon Got In My Eyes
DR11 -0.18 dB -15.13 dB 3:08 08-Moonlight Mood
DR11 -0.29 dB -13.96 dB 4:14 09-Moon Love
DR11 -0.29 dB -15.26 dB 3:09 10-The Moon Was Yellow (And The Night Was Young)
––––––––––––––––––––––––––––––––––––––––

Number of tracks: 10
Official DR value: DR11

Samplerate: 44100 Hz
Channels: 2
Bits per sample: 24
Bitrate: 1463 kbps
Codec: FLAC
================================================================================

Frank Sinatra - Moonlight Sinatra (1966) [2014 Official Digital Download 24bit/44.1kHz]

5% WinRar Recovery
If you experience any problems or broken links, PLEASE SEND PM to flac jacket.