Fred Lee & The Restless - Sleepwalking in Daylight (2021) [Official Digital Download 24/96]

Posted By: pyatak
Fred Lee & The Restless - Sleepwalking in Daylight (2021) [Official Digital Download 24/96]

Fred Lee & The Restless - Sleepwalking in Daylight (2021) [Official Digital Download 24/96]
FLAC (tracks) 24-bit/96 kHz | Front Cover | Time - 28:50 minutes | 588 MB
Folk | Label:Lovely Records, Official Digital Download

Lövely has announced the signing of Fred Lee & The Restless with plans to release his debut album “Sleepwalking in Daylight” on June 11.

The first single from the album titled “Who Do You Want to Be?” is out today along with a music video.

Fredrik Lindkvist, mostly knowns as the former singer and frontman of Swedish hardcore band Totalt Jävla Mörker, has signed to Lövely records. Under the artist name Fred Lee, he will release his solo debut album “Sleepwalking in Daylight” in summer 2021. Embracing a completely different sound and style of songwriting, Fredrik’s solo project sounds like nothing he’s done before. Traditional storytelling, bittersweet vocal melodies, and clean guitar licks add up to a colorful and exciting take on folk-rock.

TRACKLIST

01. Fred Lee & The Restless - Who Do You Want to Be?
02. Fred Lee & The Restless - I've Tried
03. Fred Lee & The Restless - The Weight on My Shoulders
04. Fred Lee & The Restless - You Were Anyone, But Not Anywhere…
05. Fred Lee & The Restless - New Sweden
06. Fred Lee & The Restless - Devil's Chokehold
07. Fred Lee & The Restless - Capitalist Market
08. Fred Lee & The Restless - Juliet
09. Fred Lee & The Restless - These Times Are so Fucking Dark
10. Fred Lee & The Restless - Letter to a Friend

foobar2000 1.6.2 / Dynamic Range Meter 1.1.1
log date: 2021-06-11 18:14:47

––––––––––––––––––––––––––––––––––––––––
Analyzed: Fred Lee & The Restless / Sleepwalking in Daylight
––––––––––––––––––––––––––––––––––––––––

DR Peak RMS Duration Track
––––––––––––––––––––––––––––––––––––––––
DR7 -0.69 dB -9.71 dB 3:19 01-Who Do You Want to Be?
DR7 -0.69 dB -9.25 dB 2:19 02-I've Tried
DR7 -0.69 dB -9.26 dB 3:20 03-The Weight on My Shoulders
DR10 -0.70 dB -12.70 dB 1:49 04-You Were Anyone, But Not Anywhere…
DR10 -0.70 dB -14.56 dB 2:41 05-New Sweden
DR7 -0.69 dB -9.67 dB 4:10 06-Devil's Chokehold
DR7 -0.70 dB -9.59 dB 3:07 07-Capitalist Market
DR7 -0.69 dB -10.05 dB 3:15 08-Juliet
DR6 -0.70 dB -9.80 dB 2:51 09-These Times Are so Fucking Dark
DR14 -2.98 dB -18.55 dB 1:59 10-Letter to a Friend
––––––––––––––––––––––––––––––––––––––––

Number of tracks: 10
Official DR value: DR8

Samplerate: 96000 Hz
Channels: 2
Bits per sample: 24
Bitrate: 2417 kbps
Codec: FLAC
================================================================================



Thanks to the Original customer.