Tags
Language
Tags

Adam Walker, Timothy Ridout, James Baillieu - French Works for Flute (2021) [Official Digital Download 24/96]

Posted By: SERTiL
Adam Walker, Timothy Ridout, James Baillieu - French Works for Flute (2021) [Official Digital Download 24/96]

Adam Walker, Timothy Ridout, James Baillieu - French Works for Flute (2021)
FLAC (tracks) 24-bit/96 kHz | Time - 70:54 minutes | 1.11 GB
Studio Master, Official Digital Download | Artwork: Digital booklet

French Works for Flute is the Chandos début of Adam Walker, ably accompanied by James Baillieu. The pair is joined by the violist Timothy Ridout in Duruflé’s Prélude, récitatif et variations.

At the forefront of a new generation of wind soloists, Adam Walker was appointed principal flute of the London Symphony Orchestra in 2009 at the age of twenty-one. In 2010 he won a Borletti-Buitoni Trust Fellowship Award and was shortlisted for the Royal Philharmonic Society Outstanding Young Artist Award. He is visiting professor at the Royal College of Music.

Judged by The Daily Telegraph to be ‘in a class of his own’, James Baillieu is one of the leading chamber pianists and accompanists of his generation.
Built around three major works (Widor’s Suite, Jean-Pierre Rampal’s edition of Franck’s Violin Sonata, and Duruflé’s flute trio), the programme proves an excellent showcase for Walker’s prodigious talent – effortless virtuosity, ethereal sound, and above all outstanding musical expression.

Tracklist:
01. Saint-Saëns: Romance in D-Flat Major, Op. 37, R. 192 (Arr. for Flute & Piano) (6:57)
02. Franck: Violin Sonata in A Major, FWV 8 (Arr. for Flute & Piano): I. Allegro ben moderato (6:23)
03. Franck: Violin Sonata in A Major, FWV 8 (Arr. for Flute & Piano): II. Allegro (8:19)
04. Franck: Violin Sonata in A Major, FWV 8 (Arr. for Flute & Piano): III. Recitativo-Fantasia (7:34)
05. Franck: Violin Sonata in A Major, FWV 8 (Arr. for Flute & Piano): IV. Allegretto poco mosso (6:46)
06. Barrère: Airs de ballet d'Ascanio (After Saint-Saëns's R. 293): Poco adagio (2:32)
07. Barrère: Airs de ballet d'Ascanio (After Saint-Saëns's R. 293): Andantino (1:43)
08. Widor: Suite in C Minor, Op. 34: I. Moderato (4:17)
09. Widor: Suite in C Minor, Op. 34: II. Scherzo. Allegro vivace (2:53)
10. Widor: Suite in C Minor, Op. 34: III. Romance. Andantino (5:41)
11. Widor: Suite in C Minor, Op. 34: IV. Final. Vivace (5:39)
12. Duruflé: Prélude, récitatif et variations, Op. 3: I. Prélude (3:51)
13. Duruflé: Prélude, récitatif et variations, Op. 3: II. Récitatif (1:39)
14. Duruflé: Prélude, récitatif et variations, Op. 3: III. Thème et variations (6:48)

foobar2000 1.6 / Dynamic Range Meter 1.1.1
log date: 2021-03-30 19:32:38

––––––––––––––––––––––––––––––––––––––––
Analyzed: Adam Walker, Timothy Ridout, James Baillieu / French Works for Flute
––––––––––––––––––––––––––––––––––––––––

DR Peak RMS Duration Track
––––––––––––––––––––––––––––––––––––––––
DR15 -4.08 dB -26.09 dB 6:57 01-Saint-Saëns: Romance in D-Flat Major, Op. 37, R. 192 (Arr. for Flute & Piano)
DR14 -4.86 dB -26.00 dB 6:23 02-Franck: Violin Sonata in A Major, FWV 8 (Arr. for Flute & Piano): I. Allegro ben moderato
DR13 -1.82 dB -22.43 dB 8:19 03-Franck: Violin Sonata in A Major, FWV 8 (Arr. for Flute & Piano): II. Allegro
DR14 -6.63 dB -26.57 dB 7:34 04-Franck: Violin Sonata in A Major, FWV 8 (Arr. for Flute & Piano): III. Recitativo-Fantasia
DR13 -1.46 dB -20.36 dB 6:46 05-Franck: Violin Sonata in A Major, FWV 8 (Arr. for Flute & Piano): IV. Allegretto poco mosso
DR13 -11.25 dB -30.54 dB 2:32 06-Barrère: Airs de ballet d'Ascanio (After Saint-Saëns's R. 293): Poco adagio
DR12 -2.48 dB -24.64 dB 1:43 07-Barrère: Airs de ballet d'Ascanio (After Saint-Saëns's R. 293): Andantino
DR13 -6.50 dB -25.80 dB 4:17 08-Widor: Suite in C Minor, Op. 34: I. Moderato
DR13 -10.43 dB -27.91 dB 2:53 09-Widor: Suite in C Minor, Op. 34: II. Scherzo. Allegro vivace
DR14 -7.93 dB -27.91 dB 5:41 10-Widor: Suite in C Minor, Op. 34: III. Romance. Andantino
DR13 -3.36 dB -22.26 dB 5:39 11-Widor: Suite in C Minor, Op. 34: IV. Final. Vivace
DR14 -1.56 dB -21.93 dB 3:51 12-Duruflé: Prélude, récitatif et variations, Op. 3: I. Prélude
DR11 -9.56 dB -27.98 dB 1:39 13-Duruflé: Prélude, récitatif et variations, Op. 3: II. Récitatif
DR15 -0.86 dB -23.19 dB 6:48 14-Duruflé: Prélude, récitatif et variations, Op. 3: III. Thème et variations
––––––––––––––––––––––––––––––––––––––––

Number of tracks: 14
Official DR value: DR13

Samplerate: 96000 Hz
Channels: 2
Bits per sample: 24
Bitrate: 2292 kbps
Codec: FLAC
================================================================================


Thanks to the Original customer.