Tags
Language
Tags

Giancarlo Erra - Departure Tapes (2021)

Posted By: v3122
Giancarlo Erra - Departure Tapes (2021)

Giancarlo Erra - Departure Tapes (2021)
FLAC (Tracks) 24-bit/24/44,1 kHz | Time: 00:43:36 | 441 Mb
Modern Classical | Label: Kscope | Official Digital Download | Artwork: Front

Departure Tapes is an album consisting of 6 contemplative recordings, written while travelling between the UK and Italy. The majority of these 6 tracks were improvised in the studio by Erra, so for the most part, are totally unique and hold a sincerity which cannot be replicated. It is the follow up to 2019’s acclaimed album Ends I-VII, with the new recordings reflecting what, has been an extremely difficult year for Giancarlo, with the loss of his father to cancer. Erra comments “In 2019 my first solo album was just being released, and I already had the view that I wanted to be more experimental with the second one, but no precise idea how at that point. Then my father suddenly got ill with cancer, and everything changed.”

Erra, having had a fractured and conflicted relationship with his father since his early teenage years found a way to turn this distressing time into a cathartic experience, “he left when I was 14 and since then he wasn’t really part of my life. Then I received the news of his terminal illness and somehow, I found myself in a situation where I was taking care of this man, someone who I have been distanced from for so long. During this period, I realised it had become a time for both of us to come to terms with many things. I wanted to get closure, but a positive one, for him and for me, and I think he was the same even though he maybe didn’t know it; this was hard but at the same time ‘healing’ and in a painful twist, it was possibly the most close and positive few months I had with him since I was a small child.” He explains the influence this had on him creatively“It’s the first album I have created without realising I was actually writing it, as it is so intrinsically linked to one of the hardest and yet more healing parts of my life. The end result is the most experimental, and at the times, the darkest material I have ever written, without compromise or set plan. It contains all the elements of my music in a very unconscious free flowing way…

~ .progradar.org
Giancarlo Erra - Departure Tapes (2021):

Tracklist:

01 - Dawn Tape (00:06:14)
02 - Previous Tape (00:01:48)
03 - 169th Tape (00:02:51)
04 - Unwound Tape (00:08:21)
05 - Departure Tape (00:16:49)
06 - A Blues For My Father (00:07:30)

foobar2000 1.4.2 / Dynamic Range Meter 1.1.1
log date: 2021-07-03 15:05:32

––––––––––––––––––––––––––––––––––––––––
Analyzed: Giancarlo Erra / Departure Tapes
––––––––––––––––––––––––––––––––––––––––

DR Peak RMS Duration Track
––––––––––––––––––––––––––––––––––––––––
DR7 -0.25 dB -9.74 dB 6:15 01-Dawn Tape
DR7 -0.24 dB -10.30 dB 1:48 02-Previous Tape
DR8 0.00 dB -11.18 dB 2:51 03-169th Tape
DR7 -0.24 dB -9.84 dB 8:22 04-Unwound Tape
DR7 -0.23 dB -11.06 dB 16:49 05-Departure Tape
DR8 -0.24 dB -11.01 dB 7:31 06-A Blues For My Father
––––––––––––––––––––––––––––––––––––––––

Number of tracks: 6
Official DR value: DR7

Samplerate: 44100 Hz
Channels: 2
Bits per sample: 24
Bitrate: 1304 kbps
Codec: FLAC

All thanks go to the original releaser

Download Giancarlo Erra - Departure Tapes (2021):