Gordon Goodwin's Big Phat Band - The Gordian Knot (The Dolby Atmos Version) (2020) [Official Digital Download 24/96]

Posted By: pyatak
Gordon Goodwin's Big Phat Band - The Gordian Knot (The Dolby Atmos Version) (2020) [Official Digital Download 24/96]

Gordon Goodwin's Big Phat Band - The Gordian Knot (The Dolby Atmos Version) (2020) [Official Digital Download 24/96]
FLAC (tracks) 24-bit/96 kHz | Front Cover | Time - 01:25:43 minutes | 1,84 GB
Jazz | Label: Music Content, Official Digital Download

This exciting new Dolby Atmos release of The Gordian Knot presents this music in a manner that is truly hard to describe. Never before have you heard the rich detail of this band, the presence of these musicians and the vibrancy of their playing. You can feel the air coming through their horns, the vibration of the drum heads, and the quivering of the guitar strings. There is an intangible presence alive in this music, like you get at a live concert. But in this case, you have a front row seat.

This Blu-ray release also gives you a rare behind the scenes look at the making of this record, with music videos, artist commentary on each and every track and behind the scenes photos from the recording sessions. There is also a bonus track, not available on the CD version.

Experience the music of the Big Phat Band like you never have before with the Dolby Atmos release of The Gordian Knot.

TRACKLIST

1. Gordon Goodwin's Big Phat Band - T.O.P. Adjacent
2. Gordon Goodwin's Big Phat Band - Don't Blink
3. Gordon Goodwin's Big Phat Band - The Gordian Knot
4. Gordon Goodwin's Big Phat Band - Kneel Before Zod
5. Gordon Goodwin's Big Phat Band - Lost in Thought
6. Gordon Goodwin's Big Phat Band - The Incredibles
7. Gordon Goodwin's Big Phat Band - Sometimes I Rush
8. Gordon Goodwin's Big Phat Band - Summertime
9. Gordon Goodwin's Big Phat Band - Sunset and Vine
10. Gordon Goodwin's Big Phat Band - Deja Moo
11. Gordon Goodwin's Big Phat Band - The Buddy Complex
12. Gordon Goodwin's Big Phat Band - Cannonball Run (Bonus Track)

foobar2000 1.3.16 / Dynamic Range Meter 1.1.1
log date: 2020-09-02 16:36:39

––––––––––––––––––––––––––––––––––––––––
Analyzed: Gordon Goodwin's Big Phat Band / The Gordian Knot (The Dolby Atmos Version)
––––––––––––––––––––––––––––––––––––––––

DR Peak RMS Duration Track
––––––––––––––––––––––––––––––––––––––––
DR8 -0.21 dB -10.24 dB 7:03 01-T.O.P. Adjacent
DR7 -0.21 dB -9.60 dB 6:17 02-Don't Blink
DR7 -0.21 dB -10.14 dB 7:08 03-The Gordian Knot
DR8 -0.21 dB -9.73 dB 4:55 04-Kneel Before Zod
DR7 -0.21 dB -10.61 dB 8:27 05-Lost in Thought
DR7 -0.21 dB -9.44 dB 8:00 06-The Incredibles
DR7 -0.21 dB -10.42 dB 8:09 07-Sometimes I Rush
DR8 -0.21 dB -10.62 dB 6:28 08-Summertime
DR9 -0.21 dB -13.41 dB 5:53 09-Sunset and Vine
DR8 -0.21 dB -9.98 dB 6:32 10-Deja Moo
DR7 -0.21 dB -10.17 dB 9:38 11-The Buddy Complex
DR8 -0.21 dB -10.24 dB 7:13 12-Cannonball Run (Bonus Track)
––––––––––––––––––––––––––––––––––––––––

Number of tracks: 12
Official DR value: DR8

Samplerate: 96000 Hz
Channels: 2
Bits per sample: 24
Bitrate: 3240 kbps
Codec: FLAC
================================================================================



Thanks to the Original customer.