Tags
Language
Tags

Grandson - a modern tragedy vol. 1 (2018)

Posted By: v3122
Grandson - a modern tragedy vol. 1 (2018)

Grandson - a modern tragedy vol. 1 (2018)
FLAC (Tracks) 24-bit/44.1 kHz | Official Digital Download | Time: 00:19:19
Alternative rock, Alternative hip-hop | Fueled By Ramen | ~ 244 Mb

A Modern Tragedy, Vol. 1, a record full to the brim with emotionally and politically harsh lyrics layered over electro-alternative music. Although generally grouped into the alternative genre, grandson’s sound expands further than that, taking in influence from trap, hip-hop, and electronic. Despite the obvious reliance on electronic tones, A Modern Tragedy still manages to put out some tasty guitar licks as well as some mellow chord progressions in the slower moments of the album. Mostly playing along with the melodies of the six string, the trap-like bass enhances the riffs with a fuller production. Yes, with such bass comes some predictable musical techniques like bass drops, yet the execution of such manages to keep it rather entertaining. What really makes A Modern Tragedy stand out, however, is its lyrical themes. Jordan Benjamin’s semi-aggressive vocals fuel such political attacks and troubling situations. Ranging from blaming politicians for a man’s “Stick Up” or the media’s abuse of showing the general public extreme moments to even a cry out of a man stuck in a sick drug cycle, grandson’s lyrics provoke listeners to consider such extreme, yet important topics often ignored in music nowadays. Combining all of these aspects together, grandson craft together a solid debut of modern tragedies, yet failing at times to maintain interest for more than a few playthroughs, only leaving listeners wishing for more rather than being fully satisfied entirely.

by Tyler W, sputnikmusic.com
Grandson - a modern tragedy vol. 1 (2018):

Tracklist:

[3:35] 1. Grandson - Blood // Water
[3:43] 2. Grandson - Stick Up
[3:44] 3. Grandson - Despicable
[4:27] 4. Grandson - 6:00
[3:52] 5. Grandson - Overdose

foobar2000 1.6.9 / Dynamic Range Meter 1.1.1
log date: 2022-04-16 17:55:45

––––––––––––––––––––––––––––––––––––––––
Analyzed: Grandson / a modern tragedy vol. 1
––––––––––––––––––––––––––––––––––––––––

DR Peak RMS Duration Track
––––––––––––––––––––––––––––––––––––––––
DR4 0.00 dB -6.76 dB 3:35 01-Blood // Water
DR4 -0.01 dB -5.71 dB 3:43 02-Stick Up
DR5 0.00 dB -7.27 dB 3:44 03-Despicable
DR5 0.00 dB -7.60 dB 4:26 04-6:00
DR4 0.00 dB -5.84 dB 3:51 05-Overdose
––––––––––––––––––––––––––––––––––––––––

Number of tracks: 5
Official DR value: DR4

Samplerate: 44100 Hz
Channels: 2
Bits per sample: 24
Bitrate: 1685 kbps
Codec: FLAC

All thanks go to the original releaser

Download Grandson - a modern tragedy vol. 1 (2018):