Gwendolyn Masin - Bernstein West Side Story (Arr. H.Huizinga for Violin & Saxophone Quartet) (2020) [Official Digital Download]

Posted By: pyatak
Gwendolyn Masin - Bernstein West Side Story (Arr. H.Huizinga for Violin & Saxophone Quartet) (2020) [Official Digital Download]

Gwendolyn Masin - Bernstein West Side Story (Arr. H.Huizinga for Violin & Saxophone Quartet) (2020) [Official Digital Download]
FLAC (tracks) 24-bit/48 kHz | Front Cover | Time - 42:00 minutes | 428 MB
Classical | Label: Orchid Classics, Official Digital Download

The GAIA Music Festival takes place annually in Oberhofen in Switzerland. The brainchild of violinist Gwendolyn Masin, the Festival is named after the Greek goddess of the Earth, and in just a few years has grown into a thriving and captivating series of events. Concerts from the Festival have been recorded in collaboration with Orchid Classics, capturing the energy and spontaneity of these special live performances.
This recording is of Leonard Bernstein’s seminal musical, West Side Story, in a unique arrangement for violin and saxophone quartet made by composer-conductor Henk Huizinga, performed by Gwendolyn Masin and the Melisma Saxophone Quartet. The unusual combination of instruments works superbly: the violin line soars, often taking the main vocal melody, while the winds show their versatility with sonorities ranging from earthy to delicate. The movement order reflects the story arc of West Side Story while creating contrast between lighter and darker numbers, including ‘Somewhere’, ‘Tonight’, ‘Gee, Officer Krupke’ and ‘America’.

TRACKLIST

01. Gwendolyn Masin - Prologue (From "West Side Story") [Arr. H. Huizinga for Violin & Saxophone Quartet] [Live]
02. Gwendolyn Masin - Jet Song (From "West Side Story") [Arr. H. Huizinga for Violin & Saxophone Quartet] [Live]
03. Gwendolyn Masin - Blues (From "West Side Story") [Arr. H. Huizinga for Violin & Saxophone Quartet] [Live]
04. Gwendolyn Masin - Somewhere (From "West Side Story") [Arr. H. Huizinga for Violin & Saxophone Quartet] [Live]
05. Gwendolyn Masin - Procession & Nightmare (From "West Side Story") [Arr. H. Huizinga for Violin & Saxophone Quartet] [Live]
06. Gwendolyn Masin - Scherzo (From "West Side Story") [Arr. H. Huizinga for Violin & Saxophone Quartet] [Live]
07. Gwendolyn Masin - Mambo (From "West Side Story") [Arr. H. Huizinga for Violin & Saxophone Quartet] [Live]
08. Gwendolyn Masin - Cha-Cha (From "West Side Story") [Arr. H. Huizinga for Violin & Saxophone Quartet] [Live]
09. Gwendolyn Masin - I Feel Pretty (From "West Side Story") [Arr. H. Huizinga for Violin & Saxophone Quartet] [Live]
10. Gwendolyn Masin - Maria (From "West Side Story") [Arr. H. Huizinga for Violin & Saxophone Quartet] [Live]
11. Gwendolyn Masin - Cool (From "West Side Story") [Arr. H. Huizinga for Violin & Saxophone Quartet] [Live]
12. Gwendolyn Masin - America (From "West Side Story") [Arr. H. Huizinga for Violin & Saxophone Quartet] [Live]
13. Gwendolyn Masin - One Hand, One Heart (From "West Side Story") [Arr. H. Huizinga for Violin & Saxophone Quartet] [Live]
14. Gwendolyn Masin - Gee, Officer Krupke (From "West Side Story") [Arr. H. Huizinga for Violin & Saxophone Quartet] [Live]
15. Gwendolyn Masin - Tonight (From "West Side Story") [Arr. H. Huizinga for Violin & Saxophone Quartet] [Live]
16. Gwendolyn Masin - A Boy Like That (From "West Side Story") [Arr. H. Huizinga for Violin & Saxophone Quartet] [Live]
17. Gwendolyn Masin - I Have a Love (From "West Side Story") [Arr. H. Huizinga for Violin & Saxophone Quartet] [Live]
18. Gwendolyn Masin - The Rumble (From "West Side Story") [Arr. H. Huizinga for Violin & Saxophone Quartet] [Live]
19. Gwendolyn Masin - Finale (From "West Side Story") [Arr. H. Huizinga for Violin & Saxophone Quartet] [Live]

foobar2000 1.6.2 / Dynamic Range Meter 1.1.1
log date: 2021-01-06 10:18:01

––––––––––––––––––––––––––––––––––––––––
Analyzed: Gwendolyn Masin / Bernstein: West Side Story (Arr. H. Huizinga for Violin & Saxophone Quartet) [Live]
––––––––––––––––––––––––––––––––––––––––

DR Peak RMS Duration Track
––––––––––––––––––––––––––––––––––––––––
DR14 -1.90 dB -19.59 dB 4:58 01-Prologue (From "West Side Story") [Arr. H. Huizinga for Violin & Saxophone Quartet] [Live]
DR12 -3.69 dB -19.37 dB 0:54 02-Jet Song (From "West Side Story") [Arr. H. Huizinga for Violin & Saxophone Quartet] [Live]
DR11 -3.14 dB -17.35 dB 1:45 03-Blues (From "West Side Story") [Arr. H. Huizinga for Violin & Saxophone Quartet] [Live]
DR10 -6.16 dB -21.08 dB 2:12 04-Somewhere (From "West Side Story") [Arr. H. Huizinga for Violin & Saxophone Quartet] [Live]
DR11 -7.75 dB -24.21 dB 1:27 05-Procession & Nightmare (From "West Side Story") [Arr. H. Huizinga for Violin & Saxophone Quartet] [Live]
DR15 -1.80 dB -21.33 dB 1:17 06-Scherzo (From "West Side Story") [Arr. H. Huizinga for Violin & Saxophone Quartet] [Live]
DR13 -3.08 dB -18.71 dB 2:18 07-Mambo (From "West Side Story") [Arr. H. Huizinga for Violin & Saxophone Quartet] [Live]
DR12 -11.23 dB -28.29 dB 1:37 08-Cha-Cha (From "West Side Story") [Arr. H. Huizinga for Violin & Saxophone Quartet] [Live]
DR13 -1.61 dB -20.00 dB 2:10 09-I Feel Pretty (From "West Side Story") [Arr. H. Huizinga for Violin & Saxophone Quartet] [Live]
DR11 -6.12 dB -22.07 dB 2:38 10-Maria (From "West Side Story") [Arr. H. Huizinga for Violin & Saxophone Quartet] [Live]
DR10 -4.39 dB -19.76 dB 1:15 11-Cool (From "West Side Story") [Arr. H. Huizinga for Violin & Saxophone Quartet] [Live]
DR13 -3.13 dB -20.36 dB 2:36 12-America (From "West Side Story") [Arr. H. Huizinga for Violin & Saxophone Quartet] [Live]
DR10 -9.76 dB -23.80 dB 3:01 13-One Hand, One Heart (From "West Side Story") [Arr. H. Huizinga for Violin & Saxophone Quartet] [Live]
DR13 -2.10 dB -18.67 dB 2:01 14-Gee, Officer Krupke (From "West Side Story") [Arr. H. Huizinga for Violin & Saxophone Quartet] [Live]
DR10 -5.80 dB -20.78 dB 3:54 15-Tonight (From "West Side Story") [Arr. H. Huizinga for Violin & Saxophone Quartet] [Live]
DR12 -4.50 dB -21.51 dB 1:33 16-A Boy Like That (From "West Side Story") [Arr. H. Huizinga for Violin & Saxophone Quartet] [Live]
DR11 -4.75 dB -21.52 dB 2:19 17-I Have a Love (From "West Side Story") [Arr. H. Huizinga for Violin & Saxophone Quartet] [Live]
DR13 -2.47 dB -18.07 dB 2:00 18-The Rumble (From "West Side Story") [Arr. H. Huizinga for Violin & Saxophone Quartet] [Live]
DR11 -6.62 dB -23.09 dB 2:07 19-Finale (From "West Side Story") [Arr. H. Huizinga for Violin & Saxophone Quartet] [Live]
––––––––––––––––––––––––––––––––––––––––

Number of tracks: 19
Official DR value: DR12

Samplerate: 48000 Hz
Channels: 2
Bits per sample: 24
Bitrate: 1337 kbps
Codec: FLAC
================================================================================



Thanks to the Original customer.