Tags
Language
Tags

Hans Zimmer & Junkie XL - Batman v Superman: Dawn of Justice (Deluxe Edition) (2016) [TR24][OF]

Posted By: SERTiL
Hans Zimmer & Junkie XL - Batman v Superman: Dawn of Justice (Deluxe Edition) (2016) [TR24][OF]

Hans Zimmer & Junkie XL - Batman v Superman: Dawn of Justice (Deluxe Edition)
Soundtrack, Score | FLAC (tracks) 24-bit/96 kHz | 90:26 min | 1.51 GB | Front Cover
Label: WaterTower Music | Tracks: 18 | Rls.date: 2016

Batman V Superman: Dawn Of Justice Original Motion Picture Soundtrack is a collaborative effort by film composers Hans Zimmer and Junkie XL. Hans and Tom created an incredibly compelling and interesting and heart-pounding new musical world for Batman, while continuing to expand on the amazing world and themes Hans had previously created for Superman. Noted director Zack Snyder, By aligning their vision with my perspective and seeing the characters anew through the lens of the film they were able to support the visual aspects of the movie in a way that elevates the film to another level. In so many ways, they become the final texture, the final note in the process of creating the world.

After working with Hans Zimmer in the music department of a handful of prior films, including as a member of Hans Zimmer & the Magnificent Six on the Amazing Spider-Man 2 soundtrack, Junkie XL (aka Tom Holkenborg) receives a co-composer credit for the pair's score to Batman v Superman: Dawn of Justice. Pulsing and ominous, the DC Comics franchise entry features clamorous orchestral fare boosted by occasional choir and electronics, altogether providing near operatic accompaniment as the two superheroes are forced to do battle. The score recording offers over 70 minutes of music, with a deluxe edition adding 20 minutes to the playing time. Marcy Donelson, All Music Guide

TRACKLIST

CD1
01. Beautiful Lie (03:47)
02. Their War Here (04:36)
03. The Red Capes Are Coming (03:31)
04. Day Of The Dead (04:02)
05. Must There Be A Superman? (04:03)
06. New Rules (04:03)
07. Do You Bleed? (04:36)
08. Problems Up Here (04:25)
09. Black And Blue (08:33)
10. Tuesday (04:00)
11. Is She With You? (05:46)
12. This Is My World (06:25)
13. Men Are Still Good (The Batman Suite) (14:08)

CD2
01. Blood Of My Blood (04:30)
02. Vigilante (04:00)
03. May I Help You, Mr. Wayne? (03:33)
04. They Were Hunters (02:50)
05. Fight Night (04:20)

foobar2000 1.3.9 / Dynamic Range Meter 1.1.1
log date: 2016-03-19 19:02:49

––––––––––––––––––––––––––––––––––––––––
Analyzed: Hans Zimmer & Junkie XL / Batman v Superman: Dawn of Justice
––––––––––––––––––––––––––––––––––––––––

DR Peak RMS Duration Track
––––––––––––––––––––––––––––––––––––––––
DR10 -0.38 dB -15.39 dB 3:47 01-Beautiful Lie
DR7 -0.33 dB -11.50 dB 4:35 02-Their War Here
DR9 -0.38 dB -15.40 dB 3:32 03-The Red Capes Are Coming
DR9 -0.58 dB -13.02 dB 4:02 04-Day of the Dead
DR12 -0.52 dB -15.55 dB 3:59 05-Must There Be a Superman?
DR12 -0.39 dB -18.58 dB 4:03 06-New Rules
DR8 -0.27 dB -10.36 dB 4:36 07-Do You Bleed?
DR8 -0.51 dB -12.81 dB 4:25 08-Problems Up Here
DR10 -0.47 dB -13.99 dB 8:31 09-Black and Blue
DR8 -0.54 dB -12.22 dB 4:01 10-Tuesday
DR9 -0.34 dB -12.18 dB 5:47 11-Is She with You?
DR9 -0.50 dB -15.99 dB 6:24 12-This Is My World
DR7 -0.29 dB -12.70 dB 14:04 13-Men Are Still Good (The Batman Suite)
DR12 -0.55 dB -18.04 dB 4:26 14-Blood of My Blood
DR14 -0.61 dB -21.12 dB 3:54 15-Vigilante
DR12 -6.57 dB -28.39 dB 3:28 16-May I Help You, Mr. Wayne?
DR12 -6.31 dB -25.60 dB 2:46 17-They Were Hunters
DR5 -0.16 dB -7.29 dB 4:20 18-Fight Night
––––––––––––––––––––––––––––––––––––––––

Number of tracks: 18
Official DR value: DR9

Samplerate: 96000 Hz
Channels: 2
Bits per sample: 24
Bitrate: 2912 kbps
Codec: FLAC
================================================================================


Thanks to the Original customer.