Giovanni Antonini & Il Giardino Armonico - Haydn 2032, Vol. 8: La Roxolana (2020) [Official Digital Download 24/176]

Posted By: SERTiL
Giovanni Antonini & Il Giardino Armonico - Haydn 2032, Vol. 8: La Roxolana (2020) [Official Digital Download 24/176]

Giovanni Antonini & Il Giardino Armonico - Haydn 2032, Vol. 8: La Roxolana (2020)
FLAC (tracks) 24-bit/176.4 kHz | Time - 76:34 minutes | 2.42 GB
Studio Master, Official Digital Download | Artwork: Digital Booklet

For its eighth volume, Haydn2032 invites us on a musical journey that takes the Balkan route. Of all the ‘Viennese Classical School’, Joseph Haydn is certainly the composer closest to folk music, first because he spent his early years in the countryside and also because, unlike his colleagues who worked in the urban centres of the Habsburg monarchy, Haydn was in contact with Croats, Roma and Hungarians throughout his life. These influences were omnipresent in his music, to the delight of Prince Nikolaus I Esterházy and his guests, but by some accounts were not to the taste of many music theorists in Germany. Haydn gave his Symphony no.63 in C major the title of ‘La Roxolana’, from the famous sixteenth-century sultana who was the wife of Suleiman the Magnificent after having been his slave. As usual, Giovanni Antonini, who is reunited here with Il Giardino Armonico, juxtaposes Haydn’s music with that of another composer. The natural choice here was Béla Bartók, who is represented by his Romanian Folk Dances, composed in 1917.

Tracklist:
1. Symphony No. 63 in C Major, Hob.I:63 "La Roxolana": I. Allegro (7:10)
2. Symphony No. 63 in C Major, Hob.I:63 "La Roxolana": II. La Roxolana. Allegretto piu tosto allegro (5:01)
3. Symphony No. 63 in C Major, Hob.I:63 "La Roxolana": III. Menuet - Trio (2:39)
4. Symphony No. 63 in C Major, Hob.I:63 "La Roxolana": IV. Finale. Presto (5:25)
5. Symphony No. 43 in E-Flat Major, Hob.I:43 "Mercury": I. Allegro (9:49)
6. Symphony No. 43 in E-Flat Major, Hob.I:43 "Mercury": II. Adagio (8:31)
7. Symphony No. 43 in E-Flat Major, Hob.I:43 "Mercury": III. Menuet - Trio (2:32)
8. Symphony No. 43 in E-Flat Major, Hob.I:43 "Mercury": IV. Finale. Allegro (6:05)
9. Romanian Folk Dances, SZ. 68, BB 76: I. Joc cu bǎtǎ (Allegro moderato) (1:02)
10. Romanian Folk Dances, SZ. 68, BB 76: II. Brǎul (Allegro) (0:33)
11. Romanian Folk Dances, SZ. 68, BB 76: III. Pê-loc (Andante) (0:47)
12. Romanian Folk Dances, SZ. 68, BB 76: IV. Buciumeana (Moderato) (1:36)
13. Romanian Folk Dances, SZ. 68, BB 76: V. Puargǎ romǎneascǎ (Allegro) (0:32)
14. Romanian Folk Dances, SZ. 68, BB 76: VI. Mǎrunţel (L'istesso tempo) (0:14)
15. Romanian Folk Dances, SZ. 68, BB 76: VII. Mǎrunţel (Allegro vivace) (0:40)
16. Sonata Jucunda: Adagio - Presto - Adagio - Allegro - Allegro - Allegro - Adagio - Adagio - Allegro - Adagio (6:06)
17. Symphony No. 28 in A Major, Hob.I:28: I. Allegro di molto (5:28)
18. Symphony No. 28 in A Major, Hob.I:28: II. Poco adagio (7:06)
19. Symphony No. 28 in A Major, Hob.I:28: III. Menuet. Allegro molto - Trio (2:39)
20. Symphony No. 28 in A Major, Hob.I:28: IV. Presto assai (2:45)

foobar2000 1.3.7 / Dynamic Range Meter 1.1.1
log date: 2020-01-14 21:42:57

––––––––––––––––––––––––––––––––––––––––
Analyzed: Giovanni Antonini & Il Giardino Armonico / Haydn 2032, Vol. 8: La Roxolana
––––––––––––––––––––––––––––––––––––––––

DR Peak RMS Duration Track
––––––––––––––––––––––––––––––––––––––––
DR9 -0.67 dB -13.96 dB 7:10 01-Symphony No. 63 in C Major, Hob.I:63 "La Roxolana": I. Allegro
DR12 -0.67 dB -17.99 dB 5:01 02-Symphony No. 63 in C Major, Hob.I:63 "La Roxolana": II. La Roxolana. Allegretto piu tosto allegro
DR12 -0.67 dB -17.29 dB 2:39 03-Symphony No. 63 in C Major, Hob.I:63 "La Roxolana": III. Menuet - Trio
DR11 -0.67 dB -14.77 dB 5:25 04-Symphony No. 63 in C Major, Hob.I:63 "La Roxolana": IV. Finale. Presto
DR11 -0.67 dB -15.37 dB 9:49 05-Symphony No. 43 in E-Flat Major, Hob.I:43 "Mercury": I. Allegro
DR15 -1.20 dB -24.00 dB 8:31 06-Symphony No. 43 in E-Flat Major, Hob.I:43 "Mercury": II. Adagio
DR11 -2.44 dB -17.47 dB 2:32 07-Symphony No. 43 in E-Flat Major, Hob.I:43 "Mercury": III. Menuet - Trio
DR11 -0.67 dB -14.79 dB 6:05 08-Symphony No. 43 in E-Flat Major, Hob.I:43 "Mercury": IV. Finale. Allegro
DR10 -0.77 dB -12.94 dB 1:02 09-Romanian Folk Dances, SZ. 68, BB 76: I. Joc cu bǎtǎ (Allegro moderato)
DR11 -5.56 dB -22.60 dB 0:33 10-Romanian Folk Dances, SZ. 68, BB 76: II. Brǎul (Allegro)
DR9 -7.46 dB -21.51 dB 0:47 11-Romanian Folk Dances, SZ. 68, BB 76: III. Pê-loc (Andante)
DR11 -4.05 dB -21.01 dB 1:36 12-Romanian Folk Dances, SZ. 68, BB 76: IV. Buciumeana (Moderato)
DR11 -0.77 dB -12.22 dB 0:32 13-Romanian Folk Dances, SZ. 68, BB 76: V. Puargǎ romǎneascǎ (Allegro)
DR10 -0.77 dB -11.59 dB 0:14 14-Romanian Folk Dances, SZ. 68, BB 76: VI. Mǎrunţel (L'istesso tempo)
DR9 -0.77 dB -11.60 dB 0:40 15-Romanian Folk Dances, SZ. 68, BB 76: VII. Mǎrunţel (Allegro vivace)
DR10 -0.87 dB -16.51 dB 6:06 16-Sonata Jucunda: Adagio - Presto - Adagio - Allegro - Allegro - Allegro - Adagio - Adagio - Allegro - Adagio
DR10 -0.67 dB -14.25 dB 5:28 17-Symphony No. 28 in A Major, Hob.I:28: I. Allegro di molto
DR15 -5.96 dB -28.08 dB 7:06 18-Symphony No. 28 in A Major, Hob.I:28: II. Poco adagio
DR12 -0.67 dB -16.26 dB 2:39 19-Symphony No. 28 in A Major, Hob.I:28: III. Menuet. Allegro molto - Trio
DR10 -0.67 dB -14.11 dB 2:45 20-Symphony No. 28 in A Major, Hob.I:28: IV. Presto assai
––––––––––––––––––––––––––––––––––––––––

Number of tracks: 20
Official DR value: DR11

Samplerate: 176400 Hz
Channels: 2
Bits per sample: 24
Bitrate: 4622 kbps
Codec: FLAC
================================================================================


Thanks to the Original customer.