Hobo Johnson - The Fall of Hobo Johnson (2019) [Official Digital Download]

Posted By: Pisulik
Hobo Johnson - The Fall of Hobo Johnson (2019) [Official Digital Download]

Hobo Johnson - The Fall of Hobo Johnson (2019)
FLAC (tracks) 24-bit/44.1 kHz | Time - 37:27 minutes | 416 MB
Studio Master, Official Digital Download | Artwork: Front cover

The album, out via Warner Bros on September 13, follows debut record ‘The Rise Of Hobo Johnson’. "The new album is a mix of songs and poems I’ve had floating around in my head for the last few years,” the singer says of the new record. “I’m really proud of it and hope that it makes everyone feel a little less alone and a little more like they want to stay alive.”

Tracklist:

01. Typical Story
02. Mover Awayer
03. Uglykid (feat. Elohim)
04. You & the Cockroach
05. Subaru Crosstrek XV
06. Moonlight
07. Happiness
08. All in My Head
09. Ode to Justin Bieber (feat. Jack Shoot & JMSEY)
10. February 15th
11. Sorry, My Dear
12. I Want a Dog

foobar2000 1.3.7 / Dynamic Range Meter 1.1.1
log date: 2019-09-11 05:41:59

––––––––––––––––––––––––––––––––––––––––
Analyzed: Hobo Johnson / The Fall of Hobo Johnson
––––––––––––––––––––––––––––––––––––––––

DR Peak RMS Duration Track
––––––––––––––––––––––––––––––––––––––––
DR3 0.00 dB -4.58 dB 3:11 01-Typical Story
DR5 -0.10 dB -8.04 dB 3:36 02-Mover Awayer
DR7 -0.10 dB -9.10 dB 3:01 03-Uglykid (feat. Elohim)
DR9 -0.13 dB -13.70 dB 4:02 04-You & the Cockroach
DR5 -0.10 dB -8.06 dB 2:35 05-Subaru Crosstrek XV
DR4 -0.10 dB -7.43 dB 2:48 06-Moonlight
DR7 -0.10 dB -9.62 dB 3:16 07-Happiness
DR5 -0.13 dB -8.53 dB 3:16 08-All in My Head
DR6 -0.10 dB -8.26 dB 3:45 09-Ode to Justin Bieber (feat. Jack Shoot & JMSEY)
DR9 -0.10 dB -12.00 dB 1:49 10-February 15th
DR5 -0.10 dB -9.13 dB 3:46 11-Sorry, My Dear
DR8 -0.10 dB -11.42 dB 2:30 12-I Want a Dog
––––––––––––––––––––––––––––––––––––––––

Number of tracks: 12
Official DR value: DR6

Samplerate: 44100 Hz
Channels: 2
Bits per sample: 24
Bitrate: 1514 kbps
Codec: FLAC
================================================================================


All thanks go to the original releaser