Tags
Language
Tags

Holland Baroque & Bastarda Trio - Minne (2022)

Posted By: v3122
Holland Baroque & Bastarda Trio - Minne (2022)

Holland Baroque & Bastarda Trio - Minne (2022)
DSD64 2.0 | 1-bit/2.8224 MHz | Time: 01:12:28 | ~ 1.82 GB
or 24-bit/96 kHz | Flac(Tracks) | ~ 709 Mb
Classical | PentaTone | Official Digital Download

Holland Baroque presents Minne, an improvised programme inspired by the love poetry of medieval mystic Hadewijch from Brabant. Hadewijch was a 13th-century beguine who wrote an impressive oeuvre of love poetry, providing an original, female perspective on medieval life. For this project, Holland Baroque works together with Bastarda Trio, a folk-jazz group combining the unique sonorities of clarinet, cello and contrabass clarinet. Inspired by medieval poetry, the result is a playful, passionate, truly contemporary album.

Holland Baroque is an original and innovative baroque orchestra that approaches baroque repertoire through a fresh and contemporary approach, with a focus on improvisation and collaborations with outstanding artists from different traditions. Minne is their fourth PENTATONE album, after having released Brabant 1653, Polonoise (both 2021) and Silk Baroque (2019) with the label. Bastarda Trio makes its PENTATONE debut.
Holland Baroque & Bastarda Trio - Minne (2022):


Tracklist:

Bastarda Trio
01. Gaude (After Anonymous Gaudeamus Omnes)

Judith Steenbrink
02. Introduction for Chamber Ensemble
03. Orewoet

Bastarda Trio
04. Nigra sum (After G. Palestrina)

Judith Steenbrink
05. Spiritus sanctus (After H. Bingen's D 157r)

Heinrich Isaac
06. O decus ecclesiae No. 2, Te laudant omnes (Arr. J. Steenbrink & Bastarda for Chamber Ensemble)

Anonymous
07. Media vita (Arr. J. Steenbrink for Chamber Ensemble)

Melchior Franck
08. Geistliche gesäng und melodeyen No. 19, Er küsse mich (Arr. J. Steenbrink for Chamber Ensemble)

Judith Steenbrink
09. Minne

foobar2000 1.6.6 / Dynamic Range Meter 1.1.1
log date: 2022-05-14 07:34:27

––––––––––––––––––––––––––––––––––––––––
Analyzed: Holland Baroque & Bastarda Trio / Minne
––––––––––––––––––––––––––––––––––––––––

DR Peak RMS Duration Track
––––––––––––––––––––––––––––––––––––––––
DR12 -5.95 dB -22.57 dB 4:33 01-Gaude (After Anonymous Gaudeamus Omnes)
DR11 -11.10 dB -27.92 dB 2:52 02-Introduction for Chamber Ensemble
DR12 -10.10 dB -27.28 dB 6:41 03-Orewoet
DR11 -12.40 dB -26.89 dB 4:16 04-Nigra sum (After G. Palestrina)
DR11 -5.62 dB -22.10 dB 3:41 05-Spiritus sanctus (After H. Bingen's D 157r)
DR12 -11.92 dB -28.01 dB 4:30 06-O decus ecclesiae: No. 2, Te laudant omnes (Arr. J. Steenbrink & Bastarda for Chamber Ensemble)
DR13 -8.63 dB -28.93 dB 8:41 07-Media vita (Arr. J. Steenbrink for Chamber Ensemble)
DR13 -9.35 dB -28.47 dB 3:32 08-Geistliche gesäng und melodeyen: No. 19, Er küsse mich (Arr. J. Steenbrink for Chamber Ensemble)
DR12 -13.86 dB -29.60 dB 6:01 09-Minne
––––––––––––––––––––––––––––––––––––––––

Number of tracks: 9
Official DR value: DR12
Samplerate: 2822400 Hz / PCM Samplerate: 176400 Hz
Channels: 2
Bits per sample: 1
Bitrate: 5645 kbps
Codec: DSD64

Download Holland Baroque & Bastarda Trio - Minne (2022):