Holly Macve - Not the Girl (2021) [Official Digital Download]

Posted By: pyatak
Holly Macve - Not the Girl (2021) [Official Digital Download]

Holly Macve - Not the Girl (2021) [Official Digital Download]
FLAC (tracks) 24-bit/44.1 kHz | Front Cover | Time - 47:40 minutes | 552 MB
Pop, Country | Label: Modern Sky Entertainment, Official Digital Download

Hands up if you’re a sucker for music that rips your heart clean out of your chest, throws it to the ground and, without mercy, cha-chas all over it. Fans of said genre may already be familiar with the deep timbre of Brighton-based alt-country’s Holly Macve; new recruits are going to catch on quickly by way of cinematic new album ‘Not The Girl’.

Having taken ample time off between records to explore and re-arrange her sound, Holly’s second album is dressed in a multitude of textures ranging from yearning heaviness over moody, tear-stained moments to grunge-infused dreamscapes.

Deeper and darker than debut album ‘Golden Eagle’, ‘Not The Girl’ is laced, not only with a firm sense of direction, but a distinct air of intent: Holly Macve is reaching for higher ground. An ambition that is most notable on title-track ‘Not The Girl’ with its slow-moving dramaturgy, but it’s on murder ballad ‘Behind The Flowers’ that Holly shows the full extent of her songwriting prowess. Entirely fictional of course, the track tells the haunting story of a girl who kills her abusive father. Dark imagery gives life to even darker imagination (“the last word he said was the first time I felt free”) and creates a sense of morbid fascination –a definite must listen for true-crime lovers and amateur detectives.

TRACKLIST

01. Holly Macve - Bird
02. Holly Macve - Eye of the Storm
03. Holly Macve - Be My Friend
04. Holly Macve - You Can Do Better
05. Holly Macve - Daddy's Gone
06. Holly Macve - Little Lonely Heart
07. Holly Macve - Sweet Marie
08. Holly Macve - Who Am I?
09. Holly Macve - Not the Girl
10. Holly Macve - Behind the Flowers
11. Holly Macve - Lonely Road

foobar2000 1.6.2 / Dynamic Range Meter 1.1.1
log date: 2021-05-15 19:22:09

––––––––––––––––––––––––––––––––––––––––
Analyzed: Holly Macve / Not the Girl
––––––––––––––––––––––––––––––––––––––––

DR Peak RMS Duration Track
––––––––––––––––––––––––––––––––––––––––
DR9 -0.10 dB -11.22 dB 4:44 01-Bird
DR9 -0.10 dB -11.54 dB 4:10 02-Eye of the Storm
DR8 -0.10 dB -10.87 dB 4:02 03-Be My Friend
DR9 -0.10 dB -10.47 dB 3:38 04-You Can Do Better
DR8 -0.10 dB -9.52 dB 3:56 05-Daddy's Gone
DR9 -0.10 dB -11.39 dB 4:30 06-Little Lonely Heart
DR8 -0.10 dB -10.14 dB 4:37 07-Sweet Marie
DR8 -0.10 dB -9.32 dB 3:27 08-Who Am I?
DR8 -0.10 dB -11.13 dB 4:11 09-Not the Girl
DR9 -0.10 dB -11.97 dB 5:17 10-Behind the Flowers
DR9 -1.29 dB -13.35 dB 5:08 11-Lonely Road
––––––––––––––––––––––––––––––––––––––––

Number of tracks: 11
Official DR value: DR8

Samplerate: 44100 Hz
Channels: 2
Bits per sample: 24
Bitrate: 1398 kbps
Codec: FLAC
================================================================================



Thanks to the Original customer.