I Like To Sleep - Bedmonster (2020) [Official Digital Download 24/96]

Posted By: pyatak
I Like To Sleep - Bedmonster (2020) [Official Digital Download 24/96]

I Like To Sleep - Bedmonster (2020) [Official Digital Download 24/96]
FLAC (tracks) 24-bit/96 kHz | Front Cover | Time - 40:59 minutes | 843 MB
Jazz | Label: All Good Clean Records, A.S, Official Digital Download

The music revolves around a core of heavy riffs, extensive improvisation pushed to its limits, and well-written melodies – a style labelled “POWERJAZZ”.

Based in Trondheim, Norway, I Like To Sleep is a band that feed off playing instrumental “powerjazz” with extreme improvisation, and off kilter 60’s freejazz vibes. Their vibraphone, baritone guitar and drums combination are a rare yet intriguing choice. Perhaps they pondered all elements of jazz through those cold Norwegian nights, as there are many influences here.

TRACKLIST

1. I LIKE TO SLEEP - 11
2. I LIKE TO SLEEP - Bedstories
3. I LIKE TO SLEEP - Gentle Storm
4. I LIKE TO SLEEP - Brute
5. I LIKE TO SLEEP - I Hagan
6. I LIKE TO SLEEP - Pause
7. I LIKE TO SLEEP - Bedmonster
8. I LIKE TO SLEEP - Happy Traveling
9. I LIKE TO SLEEP - The Wrong Kind of Bedstories

foobar2000 1.3.16 / Dynamic Range Meter 1.1.1
log date: 2020-06-02 02:43:48

––––––––––––––––––––––––––––––––––––––––
Analyzed: I LIKE TO SLEEP / Bedmonster
––––––––––––––––––––––––––––––––––––––––

DR Peak RMS Duration Track
––––––––––––––––––––––––––––––––––––––––
DR8 -0.30 dB -10.06 dB 4:43 01-11
DR7 -0.30 dB -11.78 dB 4:53 02-Bedstories
DR11 -0.30 dB -17.20 dB 6:33 03-Gentle Storm
DR8 -0.30 dB -11.18 dB 6:13 04-Brute
DR9 -0.30 dB -13.37 dB 4:56 05-I Hagan
DR7 -0.30 dB -12.76 dB 2:45 06-Pause
DR6 -0.30 dB -7.43 dB 1:00 07-Bedmonster
DR6 -0.30 dB -9.17 dB 7:42 08-Happy Traveling
DR4 -0.30 dB -6.29 dB 2:18 09-The Wrong Kind of Bedstories
––––––––––––––––––––––––––––––––––––––––

Number of tracks: 9
Official DR value: DR7

Samplerate: 96000 Hz
Channels: 2
Bits per sample: 24
Bitrate: 3046 kbps
Codec: FLAC
================================================================================



Thanks to the Original customer.