Tags
Language
Tags

Irene Kral - The Band and I (1959/2021) [Official Digital Download 24/96]

Posted By: pyatak
Irene Kral - The Band and I (1959/2021) [Official Digital Download 24/96]

Irene Kral - The Band and I (1959/2021) [Official Digital Download 24/96]
FLAC (tracks) 24-bit/96 kHz | Front Cover | Time - 31:44 minutes | 632 MB
Jazz | Label: RevOla, Official Digital Download

The Band and I is an album by vocalist Irene Kral performing with Herb Pomeroy's Orchestra which was recorded in 1958 and originally released on the United Artists label.

TRACKLIST

1. Irene Kral - I'd Know You Anywhere (Remastered)
2. Irene Kral - Detour Ahead (Remastered)
3. Irene Kral - Comes Love (Remastered)
4. Irene Kral - Everybody Knew But Me (Remastered)
5. Irene Kral - Lazy Afternoon (Remastered)
6. Irene Kral - What's Right for You (Remastered)
7. Irene Kral - I Let a Song Go Out of My Heart (Remastered)
8. Irene Kral - Memphis In June (Remastered)
9. Irene Kral - This Little Love (Remastered)
10. Irene Kral - The Night We Called It A Day (Remastered)
11. Irene Kral - It Isn't So Good (Remastered)
12. Irene Kral - Something To Remember You By (Remastered)

foobar2000 1.6.2 / Dynamic Range Meter 1.1.1
log date: 2021-08-14 17:51:48

––––––––––––––––––––––––––––––––––––––––
Analyzed: Irene Kral / The Band and I
––––––––––––––––––––––––––––––––––––––––

DR Peak RMS Duration Track
––––––––––––––––––––––––––––––––––––––––
DR7 0.00 dB -8.96 dB 2:15 01-I'd Know You Anywhere (Remastered)
DR8 -0.24 dB -11.83 dB 3:44 02-Detour Ahead (Remastered)
DR9 0.00 dB -12.13 dB 2:36 03-Comes Love (Remastered)
DR7 -0.22 dB -11.27 dB 2:03 04-Everybody Knew But Me (Remastered)
DR9 -0.68 dB -13.69 dB 2:55 05-Lazy Afternoon (Remastered)
DR6 -0.09 dB -9.19 dB 3:02 06-What's Right for You (Remastered)
DR7 -0.30 dB -10.12 dB 2:46 07-I Let a Song Go Out of My Heart (Remastered)
DR9 -0.11 dB -13.43 dB 2:59 08-Memphis In June (Remastered)
DR7 -0.03 dB -10.18 dB 2:08 09-This Little Love (Remastered)
DR7 -0.35 dB -10.65 dB 2:33 10-The Night We Called It A Day (Remastered)
DR7 0.00 dB -9.18 dB 2:33 11-It Isn't So Good (Remastered)
DR6 0.00 dB -10.09 dB 2:15 12-Something To Remember You By (Remastered)
––––––––––––––––––––––––––––––––––––––––

Number of tracks: 12
Official DR value: DR7

Samplerate: 96000 Hz
Channels: 2
Bits per sample: 24
Bitrate: 2827 kbps
Codec: FLAC
================================================================================



Thanks to the Original customer.