Olga Mykytenko, Bournemouth Symphony Orchestra & Kirill Karabits - I vespri verdiani: Verdi Arias (2020) [24/96]

Posted By: SERTiL
Olga Mykytenko, Bournemouth Symphony Orchestra & Kirill Karabits - I vespri verdiani: Verdi Arias (2020) [24/96]

Olga Mykytenko, Bournemouth Symphony Orchestra & Kirill Karabits - I vespri verdiani: Verdi Arias (2020)
FLAC (tracks) 24-bit/96 kHz | Time - 73:58 minutes | 1.16 GB
Studio Master, Official Digital Download | Artwork: Digital Booklet

The Ukrainian soprano Olga Mykytenko has won numerous international awards, including the Grand Prix at the Maria Callas International Singing Contest in Athens. Her extraordinary musicality, solid vocal technique, easy coloraturas, and strong expression allow her to sing major roles, from Iolanta, Mimì, and Nedda to Gilda, Violetta, and Lucia. Engaged for many years as a soloist at the National Opera of Ukraine in Kiev, where she made her debut, Olga has performed in opera houses and concert halls around the world.

For this her debut album for Chandos, she brings her interpretations of many of Verdi’s greatest soprano roles from the stage into the studio. Her programme also spans the majority of Verdi’s operatic output, from Ernani (Elvira) via Macbeth (Lady Macbeth) through to I vespri siciliani (Elena) and of course taking in Violetta (La traviata), among many others, along the way.

Accompanied by her compatriot Kirill Karabits and the thrillingly sympathetic Bournemouth Symphony Orchestra, this recital is a vocal and musical tour de force.

Tracklist:
01. I masnadieri: Tu del mio Carlo al seno
02. Un ballo in maschera: Morrò, ma prima in grazia
03. Il trovatore: Ne’ tornei! V’apparve
04. I vespri siciliani (Excerpts): Arrigo! ah! parli a un core
05. I vespri siciliani (Excerpts): Mercé, dilette amiche
06. Il corsaro: Egli non riede ancora!
07. Attila (Excerpts): Santo di patria
08. Attila (Excerpts): Liberamente or piangi
09. Ernani: Surta è la notte, e Silva non ritorna!
10. Macbeth (Excerpts): Nel dì della vittoria io le incontrai
11. Macbeth (Excerpts): Una macchia è qui tuttora
12. Luisa Miller: Tu puniscimi, o signore
13. La traviata: È strano!… è strano!… in core

foobar2000 1.3.7 / Dynamic Range Meter 1.1.1
log date: 2020-01-28 19:15:39

––––––––––––––––––––––––––––––––––––––––
Analyzed: Olga Mykytenko, Bournemouth Symphony Orchestra & Kirill Karabits / I vespri verdiani: Verdi Arias
––––––––––––––––––––––––––––––––––––––––

DR Peak RMS Duration Track
––––––––––––––––––––––––––––––––––––––––
DR14 -1.87 dB -22.49 dB 7:14 01-I masnadieri: Tu del mio Carlo al seno
DR15 -1.20 dB -22.17 dB 4:19 02-Un ballo in maschera: Morrò, ma prima in grazia
DR14 -0.85 dB -22.84 dB 6:33 03-Il trovatore: Ne’ tornei! V’apparve
DR13 -6.68 dB -26.07 dB 3:38 04-I vespri siciliani (Excerpts): Arrigo! ah! parli a un core
DR15 -0.85 dB -21.97 dB 4:12 05-I vespri siciliani (Excerpts): Mercé, dilette amiche
DR15 -7.04 dB -27.61 dB 5:09 06-Il corsaro: Egli non riede ancora!
DR14 -0.84 dB -20.08 dB 4:57 07-Attila (Excerpts): Santo di patria
DR13 -6.41 dB -25.80 dB 5:17 08-Attila (Excerpts): Liberamente or piangi
DR15 -2.13 dB -23.66 dB 7:14 09-Ernani: Surta è la notte, e Silva non ritorna!
DR13 -1.30 dB -21.11 dB 7:39 10-Macbeth (Excerpts): Nel dì della vittoria io le incontrai
DR15 -3.99 dB -24.70 dB 7:27 11-Macbeth (Excerpts): Una macchia è qui tuttora
DR12 -6.93 dB -24.79 dB 3:01 12-Luisa Miller: Tu puniscimi, o signore
DR14 -0.88 dB -23.22 dB 7:24 13-La traviata: È strano!… è strano!… in core
––––––––––––––––––––––––––––––––––––––––

Number of tracks: 13
Official DR value: DR14

Samplerate: 96000 Hz
Channels: 2
Bits per sample: 24
Bitrate: 2237 kbps
Codec: FLAC
================================================================================


Thanks to the Original customer.