Jack Stillwater - Norwegicana (2019) [Official Digital Download]

Posted By: Pisulik
Jack Stillwater - Norwegicana (2019) [Official Digital Download]

Jack Stillwater - Norwegicana (2019)
FLAC (tracks) 24-bit/48 kHz | Time - 34:48 minutes | 404 MB
Studio Master, Official Digital Download | Artwork: Front cover

Jack Stillwater is a Roots-rock band, or Scandicana if you please. The band consists of four guys, with dusty boots and melancholic minds. Jack Stillwater are now releasing their long-awaited third album. The band has drawn inspiration from the Norwegian emigration to the United States, the pursuit of happiness and the rural farm-life when they now are releasing their new material.

Tracklist:

01. You're Gonna Make Me Lonesome
02. Deep Dark Woods
03. My Baby’s Got A Secret
04. I Keep Losing You
05. Foreverman
06. Nothing Good Seems To Come
07. Follow You Down
08. Broken Hearted Town
09. Sold Down The River
10. Rebel Heart
11. Little White Lie

foobar2000 1.3.7 / Dynamic Range Meter 1.1.1
log date: 2019-03-15 00:55:15

––––––––––––––––––––––––––––––––––––––––
Analyzed: Jack Stillwater / Norwegicana
––––––––––––––––––––––––––––––––––––––––

DR Peak RMS Duration Track
––––––––––––––––––––––––––––––––––––––––
DR5 -0.45 dB -7.31 dB 3:03 01-You're Gonna Make Me Lonesome
DR6 -0.45 dB -8.10 dB 2:55 02-Deep Dark Woods
DR8 -0.45 dB -9.48 dB 2:55 03-My Baby’s Got A Secret
DR8 -0.45 dB -10.30 dB 3:17 04-I Keep Losing You
DR7 -0.45 dB -10.60 dB 3:30 05-Foreverman
DR6 -0.45 dB -9.71 dB 3:27 06-Nothing Good Seems To Come
DR7 -0.45 dB -9.43 dB 3:24 07-Follow You Down
DR7 -0.45 dB -9.50 dB 3:26 08-Broken Hearted Town
DR6 -0.45 dB -8.54 dB 2:44 09-Sold Down The River
DR10 -0.45 dB -12.28 dB 2:43 10-Rebel Heart
DR8 -0.45 dB -10.36 dB 3:27 11-Little White Lie
––––––––––––––––––––––––––––––––––––––––

Number of tracks: 11
Official DR value: DR7

Samplerate: 48000 Hz
Channels: 2
Bits per sample: 24
Bitrate: 1609 kbps
Codec: FLAC
================================================================================


All thanks go to the original releaser