Jacob Collier - In My Room (2016) [Official Digital Download]

Posted By: Pisulik
Jacob Collier - In My Room (2016) [Official Digital Download]

Jacob Collier - In My Room (2016)
FLAC (tracks) 24-bit/44.1 kHz | Time - 58:53 minutes | 639 MB
Studio Master, Official Digital Download | Artwork: Front cover

22 year old Jacob Collier is recognised as one of the world's most distinctive, inventive and prodigious young musicians. Based in London, Jacob's music combines elements of Jazz, A cappella, Groove, Folk, Triphop, Classical music, Brazilian music, Gospel, Soul and Improvisation (to name a few), all of which culminate to create the world of 'Jacob Collier'. Jacob has embraced the world of the Internet to share his uniquely creative talent, becoming best known for creating his trademark multifaceted YouTube videos from his music room at home, wherein he sings all the parts, plays all the instruments, and visualises every component with a mosaic of screens. Since his first YouTube upload in December 2011, Jacob's online social channels have garnered over 62K international subscribers and more than 6 million views and earned him a global following. Some of his greatest fans are among the elite Jazz community and include Quincy Jones, Herbie Hancock, Pat Metheny, Chick Corea, Steve Vai and Take 6, to name just a few. Jacob has been recording and self-producing his debut album 'In My Room' and creating ever more videos to be shared on his online channels. He looks forward to meeting you, one day.

Tracklist:

01. Woke up Today
02. In My Room
03. Hideaway
04. You and I
05. Down the Line
06. Now and Then I Think About You
07. Saviour
08. Hajanga
09. Flintstones
10. In the Real Early Morning
11. Don't You Know

foobar2000 1.3.7 / Dynamic Range Meter 1.1.1
log date: 2018-02-26 04:38:04

––––––––––––––––––––––––––––––––––––––––
Analyzed: Jacob Collier / In My Room
––––––––––––––––––––––––––––––––––––––––

DR Peak RMS Duration Track
––––––––––––––––––––––––––––––––––––––––
DR8 -0.50 dB -10.44 dB 4:41 01-Woke up Today
DR11 -0.50 dB -14.69 dB 4:50 02-In My Room
DR9 -0.50 dB -12.48 dB 6:53 03-Hideaway
DR9 -0.50 dB -12.57 dB 4:21 04-You and I
DR11 -0.50 dB -14.60 dB 6:39 05-Down the Line
DR14 -0.50 dB -19.00 dB 0:53 06-Now and Then I Think About You
DR10 -0.50 dB -12.85 dB 6:08 07-Saviour
DR10 -0.50 dB -13.68 dB 6:03 08-Hajanga
DR12 -0.50 dB -14.58 dB 3:11 09-Flintstones
DR12 -0.50 dB -16.95 dB 6:09 10-In the Real Early Morning
DR10 -0.50 dB -12.84 dB 9:10 11-Don't You Know
––––––––––––––––––––––––––––––––––––––––

Number of tracks: 11
Official DR value: DR11

Samplerate: 44100 Hz
Channels: 2
Bits per sample: 24
Bitrate: 1644 kbps
Codec: FLAC
================================================================================


All thanks go to the original releaser