Jacques Brel - Ne Me Quitte Pas - Nouveaux Enregistrements 1972 (1988/2015) [Official Digital Download 24/96]

Posted By: Pisulik
Jacques Brel - Ne Me Quitte Pas - Nouveaux Enregistrements 1972 (1988/2015) [Official Digital Download 24/96]

Jacques Brel - Ne Me Quitte Pas - Nouveaux Enregistrements 1972 (1988/2015)
FLAC (tracks) 24-bit/96 kHz | Time - 38:51 minutes | 872 MB
Studio Master, Official Digital Download | Artwork: Front cover

Le dernier renouvellement de contrat entre Jacques Brel et Barclay a eu lieu le 3 mars 1971 pour une durée de 33 ans. Le chanteur réenregistre alors plusieurs titres de l'époque Philipps, dans de nouveux arrangements. Ce disque, sorti en 1972, constitue donc une sorte de « best-of » des premières années de carrière du chanteur. S'il faut saluer le travail d'orchestration réalisé par François Rauber et si sur cet album quelques-uns des titres présentés son passés à la postérité (notamment le superbe « Ne me quitte pas »), malgré la voix déjà bien altérée par le tabac du chanteur, ces nouveaux enregistrements n'apportent pas grand chose. Excepté pour l'aspect documentaire donc, cet album n'est donc pas indispensable.

Tracklist:

01. Ne me quitte pas (Ré-enregistrement 1972)
02. Marieke (Ré-enregistrement 1972)
03. On n'oublie rien (Ré-enregistrement 1972)
04. Les flamandes (Ré-enregistrement 1972)
05. Les prénoms de Paris (Ré-enregistrement 1972)
06. Quand on n'a que l'amour (Ré-enregistrement 1972)
07. Les biches (Ré-enregistrement 1972)
08. Le prochain amour (Ré-enregistrement 1972)
09. Le moribond (Ré-enregistrement 1972)
10. La valse a mille temps (Ré-enregistrement 1972)
11. Je ne sais pas (Ré-enregistrement 1972)

foobar2000 1.3.7 / Dynamic Range Meter 1.1.1
log date: 2018-01-18 09:43:56

––––––––––––––––––––––––––––––––––––––––
Analyzed: Jacques Brel / Ne Me Quitte Pas - Nouveaux Enregistrements 1972
––––––––––––––––––––––––––––––––––––––––

DR Peak RMS Duration Track
––––––––––––––––––––––––––––––––––––––––
DR8 0.00 dB -12.44 dB 4:13 01-Ne me quitte pas (Ré-enregistrement 1972)
DR5 0.00 dB -7.48 dB 2:59 02-Marieke (Ré-enregistrement 1972)
DR7 0.00 dB -7.63 dB 3:09 03-On n'oublie rien (Ré-enregistrement 1972)
DR7 0.00 dB -7.99 dB 2:41 04-Les flamandes (Ré-enregistrement 1972)
DR8 0.00 dB -8.92 dB 2:35 05-Les prénoms de Paris (Ré-enregistrement 1972)
DR6 0.00 dB -8.89 dB 3:14 06-Quand on n'a que l'amour (Ré-enregistrement 1972)
DR7 0.00 dB -7.89 dB 4:24 07-Les biches (Ré-enregistrement 1972)
DR6 0.00 dB -8.93 dB 4:21 08-Le prochain amour (Ré-enregistrement 1972)
DR7 0.00 dB -7.95 dB 3:22 09-Le moribond (Ré-enregistrement 1972)
DR6 0.00 dB -8.42 dB 4:44 10-La valse a mille temps (Ré-enregistrement 1972)
DR6 0.00 dB -7.83 dB 3:09 11-Je ne sais pas (Ré-enregistrement 1972)
––––––––––––––––––––––––––––––––––––––––

Number of tracks: 11
Official DR value: DR7

Samplerate: 96000 Hz
Channels: 2
Bits per sample: 24
Bitrate: 3073 kbps
Codec: FLAC
================================================================================


All thanks go to the original releaser