Jan-Hendrik Rootering - SHOSTAKOVICH- Symphony No. 13, "Babi Yar" (2006/2021) [Official Digital Download]

Posted By: pyatak
Jan-Hendrik Rootering - SHOSTAKOVICH- Symphony No. 13, "Babi Yar" (2006/2021) [Official Digital Download]

Jan-Hendrik Rootering - SHOSTAKOVICH- Symphony No. 13, "Babi Yar" (2006/2021) [Official Digital Download]
FLAC (tracks) 24-bit/44.1 kHz | Front Cover | Time - 62:23 minutes | 501 MB
Clasical | Label: BIS, Official Digital Download

Not bad as far as it goes, Mark Wigglesworth and the Netherlands Radio Choir and Philharmonic Orchestra's performance of Shostakovich's Symphony No. 13 goes nowhere near far enough. There's plenty of power in the playing – listen to the walloping attack of the tympani, the blistering tone of the brass, and the searing strength of the strings – plenty of energy in the singing – listen to the weight of fortes and the mass of the tuttis – and plenty of sympathy in the conducting – Wigglesworth clearly grasps the musical aspects of the work and articulates them with admirable clarity and vigor. But plenty of power, energy, and sympathy aren't enough – Shostakovich's Thirteenth needs righteous indignation and an unquenchable thirst for justice in order to succeed. The Thirteenth, after all, is Shostakovich's monumental setting of poetry by Yevgeny Yevtushenko passionately condemning the moral failings of the U.S.S.R. – and anything less than unassuageable anger is nowhere near enough. Although BIS' 2006 digital recording is very live and very present, it lacks the ultimate reality of a truly great performance to give it meaning. For a great Shostakovich Thirteenth, try Kiril Kondrashin and the Moscow Philharmonic's 1963 recording. They'd just given the work its world premiere and the performance has yet to be beat for unbearable intensity and overwhelming ferocity.

TRACKLIST

1. Jan-Hendrik Rootering - I. Babi Yar: Adagio
2. Jan-Hendrik Rootering - II. Yumor (Humor): Allegretto
3. Jan-Hendrik Rootering - III. V Magazine (At the Store): Adagio
4. Jan-Hendrik Rootering - IV. Strachi (Fears): Largo
5. Jan-Hendrik Rootering - V. Kariera (Career): Allegretto

foobar2000 1.6.2 / Dynamic Range Meter 1.1.1
log date: 2021-06-23 15:40:30

––––––––––––––––––––––––––––––––––––––––
Analyzed: Jan-Hendrik Rootering / SHOSTAKOVICH: Symphony No. 13, "Babi Yar"
––––––––––––––––––––––––––––––––––––––––

DR Peak RMS Duration Track
––––––––––––––––––––––––––––––––––––––––
DR16 0.00 dB -22.43 dB 16:18 01-I. Babi Yar: Adagio
DR15 -0.04 dB -21.29 dB 8:30 02-II. Yumor (Humor): Allegretto
DR16 -1.26 dB -25.10 dB 12:14 03-III. V Magazine (At the Store): Adagio
DR18 0.00 dB -26.83 dB 12:12 04-IV. Strachi (Fears): Largo
DR19 -2.88 dB -29.06 dB 13:09 05-V. Kariera (Career): Allegretto
––––––––––––––––––––––––––––––––––––––––

Number of tracks: 5
Official DR value: DR17

Samplerate: 44100 Hz
Channels: 2
Bits per sample: 24
Bitrate: 1024 kbps
Codec: FLAC
================================================================================



Thanks to the Original customer.