Jazzrausch Bigband - Beethoven's Breakdown (2020) [Official Digital Download 24/48]

Posted By: SERTiL
Jazzrausch Bigband - Beethoven's Breakdown (2020) [Official Digital Download 24/48]

Jazzrausch Bigband - Beethoven's Breakdown (2020)
FLAC (tracks) 24-bit/48 kHz | Time - 55:57 minutes | 722 MB
Studio Master, Official Digital Download | Artwork: Front Cover

The Beethoven 250th anniversary on 17 December 2020 is an event of national significance in Germany. It even finds its way into the text of the Federal Government's coalition agreement, where it is stated that the anniversary "offers outstanding opportunities for Germany as a cultural nation both at home and abroad. That is why the preparations for this important anniversary are task for the nation." Jazzrausch Bigband got the memo straight away. With their album "Beethoven's Breakdown" the band is honouring the pioneering composer in its own way. Not by being historically authentic or by preserving him in aspic, but in a manner that befits Beethoven the radical innovator. Just as he revolutionized the history of music, the equally forward-looking JRBB has pushed ahead with its bold concept of orchestral techno-jazz.

Just how superbly it works is clear from the first track of the album,"Moonlight Sonata": a firm beat propels the piece forward, the melodic theme is given to the trumpets in minimalist form and with altered rhythms, the woodwind players having plenty of room to be free with the theme and to improvise over it. Everything becomes part of the interplay, the awareness of musical time is razor-sharp, and vocalist Patricia Römer sings in an onomatopoeic way, all of which serves to build up the tension, to the point of tearing it apart. The second ‘allegretto’movement of the Seventh Symphony is given a similar treatment and also emerges redefined: there is a fine trumpet solo and some lyrical singing, but the original delicate theme of this movement is given to contrabass clarinet and tuba, who assert it darkly and powerfully.

String Quartet No. 14 also appears in a completely new light. Using strongly syncopated basic rhythms, melodic fragments are completely reinterpreted harmonically and formed into an original composition. This multi-faceted piece ranges from classical elements to dark German techno à la Ben Klock.

There is also a newly-composed sonata in four movements on "Beethoven's Breakdown". As special guest, the Jazzrausch Bigband was able to attract trombonist Nils Landgren who is featured in this work. Formally and harmonically, the sonata is strongly reminiscent of Beethoven. The melodies and the sound aesthetic, however, make use of a contemporary language that involves both the spectral music of Tristan Murail and the danceable grooves of modern house music.

Two creative minds are behind this bold homage: Leonhard Kuhn, who is the mastermind of the band both from the musical-aesthetic and the philosophical-scientific perspectives. He composed the sonata and wrote all the techno arrangements of the Beethoven pieces. Bandleader Roman Sladek was, as always, a source of important ideas, and also supervised the production. He is responsible for the way the ensemble functions and has had a major role in its success. The band has only existed for five years, but has established a major profile with its approach, a new, stylistically open kind of orchestral jazz, and is now in great demand internationally: the band now plays at least 120 concerts a year, most recently at major festivals in Europe, Asia,Africa and the USA, but also as resident big band in Munich’s Unterfahrt jazz club and techno club Harry Klein. The level of common understanding among the players that this regular performing has engendered, and the phenomenal tightness of ensemble among this elite of Southern German jazz instrumentalists is to be heard on "Beethoven's Breakdown".

What is happening here is a compelling rejuvenation cure not just for conventional styles of jazz, but also for the classical music of Beethoven. And it is also how Jazzrausch Bigband is reaching and winning over new and young audiences for both Beethoven's music and big band jazz. For traditions to be carried on there must be renewal. A torch is being carried from one generation to the next, and fires in new and unexpected places are being set alight.

Tracklist:
01. Piano Sonata No. 14 in C-Sharp Minor, Op. 27 No. 2 'Moonlight' (6:00)
02. Symphony No. 7 in A Major, Op. 92 - II, Allegretto (6:02)
03. Sonata (Pt. I Allegro Spirituoso) (11:44)
04. Sonata (Pt. II Scherzo) (7:31)
05. Sonata (Pt. III Largo) (5:40)
06. Sonata (Pt. IV Finale) (7:01)
07. String Quartet No. 14 in C-Sharp Minor, Op. 131 (Pt. I) (6:54)
08. String Quartet No. 14 in C-Sharp Minor, Op. 131 (Part II) (5:09)

foobar2000 1.3.7 / Dynamic Range Meter 1.1.1
log date: 2020-03-25 11:38:57

––––––––––––––––––––––––––––––––––––––––
Analyzed: Jazzrausch Bigband / Beethoven's Breakdown
––––––––––––––––––––––––––––––––––––––––

DR Peak RMS Duration Track
––––––––––––––––––––––––––––––––––––––––
DR9 -0.71 dB -10.94 dB 6:00 01-Piano Sonata No. 14 in C-Sharp Minor, Op. 27 No. 2 'Moonlight'
DR9 -0.71 dB -12.07 dB 6:02 02-Symphony No. 7 in A Major, Op. 92 - II, Allegretto
DR10 -0.71 dB -12.59 dB 11:44 03-Sonata (Pt. I Allegro Spirituoso)
DR8 -0.71 dB -9.91 dB 7:31 04-Sonata (Pt. II Scherzo)
DR10 -0.71 dB -13.22 dB 5:40 05-Sonata (Pt. III Largo)
DR8 -0.71 dB -10.16 dB 7:01 06-Sonata (Pt. IV Finale)
DR9 -0.71 dB -11.73 dB 6:54 07-String Quartet No. 14 in C-Sharp Minor, Op. 131 (Pt. I)
DR9 -0.71 dB -11.30 dB 5:09 08-String Quartet No. 14 in C-Sharp Minor, Op. 131 (Part II)
––––––––––––––––––––––––––––––––––––––––

Number of tracks: 8
Official DR value: DR9

Samplerate: 48000 Hz
Channels: 2
Bits per sample: 24
Bitrate: 1737 kbps
Codec: FLAC
================================================================================


Thanks to the Original customer.