Jean-Efflam Bavouzet - Mozart: Orchestral Works (2020) [Official Digital Download 24/96]

Posted By: SERTiL
Jean-Efflam Bavouzet - Mozart: Orchestral Works (2020) [Official Digital Download 24/96]

Jean-Efflam Bavouzet - Mozart: Orchestral Works (2020)
FLAC (tracks) 24-bit/96 kHz | Time - 124:59 minutes | 2.10 GB
Studio Master, Official Digital Download | Artwork: Digital Booklet

Jean-Efflam Bavouzet’s acclaimed series of piano concertos by Mozart reaches its fifth instalment. Concertos Nos 5, 6, 8, and 9 are complemented by the overtures to Il sogno di Scipione, Lucio Silla, La finta giardiniera, Il re pastore, and Zaide. That all of these works were composed by Mozart between the ages of fifteen and twenty-five serves as a vivid reminder of his unique talents as a child prodigy: these are not childhood efforts but mature works. The Fifth Concerto was actually Mozart’s first, as Nos 1 – 4 are arrangements of works by other composers. As in the previous volumes, Bavouzet is partnered by Manchester Camerata and Gábor Takács-Nagy, all recorded in The Stoller Hall in Manchester.

Tracklist:
1. Piano Concerto No. 5 in D Major, K. 175: I. Allegro (8:04)
2. Piano Concerto No. 5 in D Major, K. 175: II. Andante ma un poco adagio (7:53)
3. Piano Concerto No. 5 in D Major, K. 175: III. Allegro (4:59)
4. La finta giardiniera, K. 196: Overture. Allegro molto (2:24)
5. La finta giardiniera, K. 196: Overture. Andante grazioso (2:29)
6. Il sogno di Scipione, K. 126: Overture. Allegro moderato (3:25)
7. Il sogno di Scipione, K. 126: Overture. Andante (2:27)
8. Il sogno di Scipione, K. 126: Overture. Presto (1:59)
9. Piano Concerto No. 6 in B-Flat Major, K. 238: I. Allegro aperto (6:26)
10. Piano Concerto No. 6 in B-Flat Major, K. 238: II. Andante un poco adagio (6:03)
11. Piano Concerto No. 6 in B-Flat Major, K. 238: III. Rondeau. Allegro (6:58)
12. Lucio Silla, K. 135: Overture. Molto allegro (I) (3:32)
13. Lucio Silla, K. 135: Overture. Andante (2:45)
14. Lucio Silla, K. 135: Overture. Molto allegro (II) (1:27)
15. Il rè pastore, K. 208: Overture (3:15)
16. Piano Concerto No. 8 in C Major, K. 246 "Lutzow": I. Allegro aperto (7:20)
17. Piano Concerto No. 8 in C Major, K. 246 "Lutzow": II. Andante (7:21)
18. Piano Concerto No. 8 in C Major, K. 246 "Lutzow": III. Rondeau. Tempo di menuetto (7:15)
19. Zaide, K. 344: Overture. Allegro spiritoso (2:49)
20. Zaide, K. 344: Overture. Andante (3:25)
21. Zaide, K. 344: Overture. Primo tempo (1:58)
22. Piano Concerto No. 9 in E-Flat Major, K. 271 "Jenamy": I. Allegro (10:15)
23. Piano Concerto No. 9 in E-Flat Major, K. 271 "Jenamy": II. Andantino (10:48)
24. Piano Concerto No. 9 in E-Flat Major, K. 271 "Jenamy": III. Rondeau. Presto (9:56)

foobar2000 1.3.7 / Dynamic Range Meter 1.1.1
log date: 2020-02-26 00:35:21

––––––––––––––––––––––––––––––––––––––––
Analyzed: Jean-Efflam Bavouzet, Manchester Camerata & Gábor Takács-Nagy / Mozart: Orchestral Works
––––––––––––––––––––––––––––––––––––––––

DR Peak RMS Duration Track
––––––––––––––––––––––––––––––––––––––––
DR15 -1.18 dB -21.65 dB 8:04 01-Piano Concerto No. 5 in D Major, K. 175: I. Allegro
DR13 -8.52 dB -26.88 dB 7:53 02-Piano Concerto No. 5 in D Major, K. 175: II. Andante ma un poco adagio
DR14 -2.13 dB -20.86 dB 4:59 03-Piano Concerto No. 5 in D Major, K. 175: III. Allegro
DR11 -6.24 dB -23.15 dB 2:24 04-La finta giardiniera, K. 196: Overture. Allegro molto
DR13 -12.96 dB -32.27 dB 2:29 05-La finta giardiniera, K. 196: Overture. Andante grazioso
DR14 -5.52 dB -24.25 dB 3:25 06-Il sogno di Scipione, K. 126: Overture. Allegro moderato
DR14 -9.84 dB -29.71 dB 2:27 07-Il sogno di Scipione, K. 126: Overture. Andante
DR13 -2.21 dB -22.88 dB 1:59 08-Il sogno di Scipione, K. 126: Overture. Presto
DR14 -4.01 dB -23.12 dB 6:26 09-Piano Concerto No. 6 in B-Flat Major, K. 238: I. Allegro aperto
DR13 -9.85 dB -28.25 dB 6:03 10-Piano Concerto No. 6 in B-Flat Major, K. 238: II. Andante un poco adagio
DR14 -4.57 dB -22.91 dB 6:58 11-Piano Concerto No. 6 in B-Flat Major, K. 238: III. Rondeau. Allegro
DR13 -3.61 dB -23.14 dB 3:32 12-Lucio Silla, K. 135: Overture. Molto allegro (I)
DR14 -11.59 dB -31.10 dB 2:45 13-Lucio Silla, K. 135: Overture. Andante
DR15 -2.44 dB -22.61 dB 1:27 14-Lucio Silla, K. 135: Overture. Molto allegro (II)
DR14 -4.95 dB -22.83 dB 3:15 15-Il rè pastore, K. 208: Overture
DR14 -1.08 dB -19.62 dB 7:20 16-Piano Concerto No. 8 in C Major, K. 246 "Lutzow": I. Allegro aperto
DR12 -3.16 dB -21.85 dB 7:21 17-Piano Concerto No. 8 in C Major, K. 246 "Lutzow": II. Andante
DR14 -3.26 dB -20.51 dB 7:15 18-Piano Concerto No. 8 in C Major, K. 246 "Lutzow": III. Rondeau. Tempo di menuetto
DR13 -0.65 dB -19.30 dB 2:49 19-Zaide, K. 344: Overture. Allegro spiritoso
DR13 -6.03 dB -26.63 dB 3:25 20-Zaide, K. 344: Overture. Andante
DR13 -0.81 dB -18.57 dB 1:58 21-Zaide, K. 344: Overture. Primo tempo
DR14 -0.79 dB -19.24 dB 10:15 22-Piano Concerto No. 9 in E-Flat Major, K. 271 "Jenamy": I. Allegro
DR13 -2.54 dB -21.40 dB 10:48 23-Piano Concerto No. 9 in E-Flat Major, K. 271 "Jenamy": II. Andantino
DR15 -1.12 dB -20.28 dB 9:56 24-Piano Concerto No. 9 in E-Flat Major, K. 271 "Jenamy": III. Rondeau. Presto
––––––––––––––––––––––––––––––––––––––––

Number of tracks: 24
Official DR value: DR14

Samplerate: 96000 Hz
Channels: 2
Bits per sample: 24
Bitrate: 2391 kbps
Codec: FLAC
================================================================================


Thanks to the Original customer.