Tags
Language
Tags

Jean Michel Jarre - Oxygene (1976) [LP, DSD128]

Posted By: Discograf_man
Jean Michel Jarre - Oxygene (1976) [LP, DSD128]

Jean Michel Jarre - Oxygene (1976) [LP, DSD128]
Electronic | DSD128 (*.dsf, tracks), 1-bit/5.64 MHz
Run Time: 00:39:40 | 3.29 GB + 5% Recovery
Label: Disques Dreyfus/Polydor | Release Year: 1976

Oxygène is the third studio album by French electronic musician and composer Jean-Michel Jarre and his first album not intended for use as a soundtrack. Oxygène consists of six tracks, numbered simply "Oxygène Part I" to "Part VI". It was first released in France in December 1976, on the Disques Dreyfus record label licensed to Polydor, with an international release following in the middle of 1977. The album reached number one on the French charts, number two on the UK charts and number 78 in the US charts.
Jarre recorded the album in a makeshift home recording studio using a variety of analogue synthesizers, one digital synthesizer, as well as other electronic instruments and effects. It became a bestseller and was Jarre's first album to achieve mainstream success. It was highly influential in the development of electronic music from that point onward and has been described as the album that "led the synthesizer revolution of the Seventies" and "an infectious combination of bouncy, bubbling analog sequences and memorable hook lines".
Jean Michel Jarre - Oxygene (1976) [LP, DSD128]

Tracklist:

Side A
A1 Oxygene Part I 7:40
A2 Oxygene Part II 8:20
A3 Oxygene Part III 2:50

Side B
B1 Oxygene Part IV 3:50
B2 Oxygene Part V 11:10
B3 Oxygene Part VI 5:55

Jean Michel Jarre - Oxygene (1976) [LP, DSD128]


foobar2000 1.4 / Dynamic Range Meter 1.1.1
log date: 2019-07-28 15:11:48

––––––––––––––––––––––––––––––––––––––––
Analyzed: Jean Michel Jarre / Oxygene,(Disques Dreyfus-2310 555,England)
––––––––––––––––––––––––––––––––––––––––

DR Peak RMS Duration Track
––––––––––––––––––––––––––––––––––––––––
DR12 -6.92 dB -23.29 dB 7:40 ?-A1 Electronic
DR12 -6.91 dB -21.29 dB 7:47 ?-A2 Oxygene Part II
DR11 -9.10 dB -23.64 dB 3:22 ?-A3 Oxygene Part III
DR12 -8.36 dB -22.66 dB 4:09 ?-B1 Oxygene Part IV
DR12 -9.06 dB -27.21 dB 10:05 ?-B2 Oxygene Part V
DR12 -9.36 dB -26.59 dB 6:39 ?-B3 Oxygene Part VI
––––––––––––––––––––––––––––––––––––––––

Number of tracks: 6
Official DR value: DR12

Samplerate: 5644800 Hz / PCM Samplerate: 88200 Hz
Channels: 2
Bits per sample: 1
Bitrate: 11290 kbps
Codec: DSD128
================================================================================

Thanks to the original releaser!