Jenna Mammina - Mutineer (2021) [Official Digital Download 24/192]

Posted By: pyatak
Jenna Mammina - Mutineer (2021) [Official Digital Download 24/192]

Jenna Mammina - Mutineer (2021) [Official Digital Download 24/192]
FLAC (tracks) 24-bit/192 kHz | Front Cover | Time - 44:57 minutes | 1,63 GB
Jazz | Label: Blue Coast Records, Official Digital Download

According to Ben Fong-Torres, former senior editor of Rolling Stone Magazine, “Exquisite!” is the word for pop/jazz vocalist/songwriter Jenna Mammina. Hailing from Michigan, home to luminary vocal legends like Aretha Franklin, Betty Carter, and her mentor, Abbey Lincoln, Jenna Mammina has performed with a vast array of legendary talent such as Bobby McFerrin, June Millington, Rickie Lee Jones, Al Jarreau, Phish, David Sanborn, Ray Obiedo, Will Ackerman, Liz Story, Tuck Andress, and Rosemary Clooney to name a few. Blue Coast Records proudly presents Jenna Mammina’s fourth release, Mutineer, featuring Matt Rollings on piano and live in the studio without headphones or overdubs for an intimate portrait of songs by some of the 20th Century’s greatest songwriters alongside Jenna Mammina originals.

TRACKLIST

01. Jenna Mammina - Mutineer (Live in the Studio - E.S.E.)
02. Jenna Mammina - Another Grey Morning (Live in the Studio - E.S.E.)
03. Jenna Mammina - Dream (Live in the Studio - E.S.E.)
04. Jenna Mammina - Bird Alone (Live in the Studio - E.S.E.)
05. Jenna Mammina - Don't Let Me Be Lonely Tonight (Live in the Studio - E.S.E.)
06. Jenna Mammina - Keep Me In Your Heart (Live in the Studio - E.S.E.)
07. Jenna Mammina - Alexandra Leaving (Live in the Studio - E.S.E.)
08. Jenna Mammina - Inner Smile (Live in the Studio - E.S.E.)
09. Jenna Mammina - You Can Close Your Eyes (Live in the Studio - E.S.E.)
10. Jenna Mammina - And It's Supposed To Be Love (Live in the Studio - E.S.E.)
11. Jenna Mammina - Gee Baby Ain't I Good To You (Live in the Studio - E.S.E.)

foobar2000 1.6.2 / Dynamic Range Meter 1.1.1
log date: 2021-06-17 23:58:51

––––––––––––––––––––––––––––––––––––––––
Analyzed: Jenna Mammina / Mutineer
––––––––––––––––––––––––––––––––––––––––

DR Peak RMS Duration Track
––––––––––––––––––––––––––––––––––––––––
DR14 -2.23 dB -22.32 dB 3:05 01-Mutineer (Live in the Studio - E.S.E.)
DR14 -3.63 dB -21.91 dB 3:20 02-Another Grey Morning (Live in the Studio - E.S.E.)
DR13 -1.27 dB -20.58 dB 3:39 03-Dream (Live in the Studio - E.S.E.)
DR14 -4.42 dB -22.04 dB 4:51 04-Bird Alone (Live in the Studio - E.S.E.)
DR14 -2.25 dB -20.69 dB 5:03 05-Don't Let Me Be Lonely Tonight (Live in the Studio - E.S.E.)
DR15 -1.22 dB -21.86 dB 3:45 06-Keep Me In Your Heart (Live in the Studio - E.S.E.)
DR15 -2.68 dB -22.66 dB 5:13 07-Alexandra Leaving (Live in the Studio - E.S.E.)
DR14 -1.60 dB -20.65 dB 4:55 08-Inner Smile (Live in the Studio - E.S.E.)
DR14 -1.03 dB -20.49 dB 4:24 09-You Can Close Your Eyes (Live in the Studio - E.S.E.)
DR15 -1.11 dB -21.23 dB 3:08 10-And It's Supposed To Be Love (Live in the Studio - E.S.E.)
DR16 -1.31 dB -21.58 dB 3:34 11-Gee Baby Ain't I Good To You (Live in the Studio - E.S.E.)
––––––––––––––––––––––––––––––––––––––––

Number of tracks: 11
Official DR value: DR14

Samplerate: 192000 Hz
Channels: 2
Bits per sample: 24
Bitrate: 5166 kbps
Codec: FLAC
================================================================================



Thanks to the Original customer.