Jeremy Ivey - The Dream And The Dreamer (2019) [Official Digital Download]

Posted By: Pisulik
Jeremy Ivey - The Dream And The Dreamer (2019) [Official Digital Download]

Jeremy Ivey - The Dream And The Dreamer (2019)
FLAC (tracks) 24-bit/44.1 kHz | Time - 32:25 minutes | 332 MB
Studio Master, Official Digital Download | Artwork: Front cover

Nashville-based performer Jeremy Ivey has operated in the background for years, initially performing in bands like Secret Handshake and country-soul group Buffalo Clover with his wife, celebrated country-rock luminary Margo Price. But now Ivey is ready to take a much-deserved step into the spotlight with a debut LP, The Dream and the Dreamer via Anti- Records). Recorded in a little bitty house studio in Nashville and produced by Price, the nine-song album hosts a collection of homespun, deeply introspective tracks. Ivey, who writes prolifically and cites everyone from the Beatles to Neil Young to Leonard Cohen and Bob Dylan as influences. Unlike his country-soul aesthetic in Buffalo Clover, which disbanded in 2013, Iveys solo material is much more straightforward yet still travels through a wide spectrum of classic folk, gently frayed psychedelia, pop, and yes, even a bit of Southern rock and Americana. Ivey is invested in his own version of the American Dreamspecifically, offering up a melting pot of genres, ideas, and stories. The best thing I could say is that Im trying to fill the holes that I can see in the scene, he says. Whether it be Americana or country or rock or whatever. Theres a certain type of song that isnt being written.

Tracklist:

01. Diamonds Back To Coal
02. Falling Man
03. Story Of A Fish
04. Worry Doll
05. Laughing Willy
06. Greyhound
07. Gina The Tramp
08. Ahead, Behind
09. The Dream And The Dreamer

foobar2000 1.3.7 / Dynamic Range Meter 1.1.1
log date: 2019-09-11 05:52:40

––––––––––––––––––––––––––––––––––––––––
Analyzed: Jeremy Ivey / The Dream And The Dreamer
––––––––––––––––––––––––––––––––––––––––

DR Peak RMS Duration Track
––––––––––––––––––––––––––––––––––––––––
DR8 -0.66 dB -9.98 dB 4:04 01-Diamonds Back To Coal
DR8 -0.66 dB -9.71 dB 2:48 02-Falling Man
DR8 -0.65 dB -10.47 dB 3:23 03-Story Of A Fish
DR10 -0.65 dB -11.30 dB 4:07 04-Worry Doll
DR9 -0.66 dB -12.68 dB 3:25 05-Laughing Willy
DR9 -0.66 dB -11.46 dB 2:26 06-Greyhound
DR8 -0.66 dB -11.29 dB 4:52 07-Gina The Tramp
DR8 -0.66 dB -10.05 dB 2:55 08-Ahead, Behind
DR9 -0.66 dB -11.98 dB 4:29 09-The Dream And The Dreamer
––––––––––––––––––––––––––––––––––––––––

Number of tracks: 9
Official DR value: DR9

Samplerate: 44100 Hz
Channels: 2
Bits per sample: 24
Bitrate: 1370 kbps
Codec: FLAC
================================================================================


All thanks go to the original releaser