Please register here if you want to download anything!

If domain in your address bar is different from the list below
PLEASE LEAVE THAT SITE IMMEDIATELY
❗IT'S A DANGEROUS FAKE❗



Spicy Magazines for Men! ;-)

Jill Barber - Chansons (2013) [Official Digital Download 24/48]

Posted By: SERTiL
Jill Barber - Chansons (2013) [Official Digital Download 24/48]

Jill Barber - Chansons (2013)
FLAC (tracks) 24-bit/48 kHz | Time - 38:55 minutes | 437 MB
Studio Master, Official Digital Download | Artwork: Digital Booklet

The album 'Chansons' features her own interpretations of classic French songs from both France and Québec. Jill meticulously curated the repertoire herself, selecting material from a long list of over thirty songs, drawn both from her own collection, and from recommendations from friends within the Francophone community. There are 12 covers of classic French songs from Québec and France, including songs by Edith Piaf, Serge Gainsbourg, and Charles Aznavour.

'On her sixth album, Canadian chanteuse Jill Barber takes you to Paris with a layover in Montréal. Chansons is a collection of Barber’s favourite French and Québécois songs from the 40s, 50s, and 60s. Clean arrangements and warm tones create a rich ambience that Barber brings to life with soulful delivery. You hang on every word and every note as the songs draw you into their world and the story unfolds before your eyes. Her French is so exquisite, it’s hard to believe she’s been speaking the language for less than five years. After her last tour, Barber enrolled in a French immersion course before recording Chansons. There’s a nice flow to the album even as the tempo, mood, and subject change from slow and melancholy (“Melancolie”) to breathy and sweeping (“La Javanaise”) to playful and bright (“Sous le Ciel de Paris”). The latter was a hit in 1954 for Edith Piaf, who Barber cites as a major inspiration, and the closing song “Adieu Foulards” dates back to the 1700s. Chansons is authentic, delightful, and leaves you wanting more.' (Broose Tulloch, Stylus Magazine)

'I spent time with the songs. I strolled the streets with Aznavour, I sat in a sidewalk cafe with Piaf, poured a stiff drink with Gainsbourg, and I became absolutely enamored and inspired by French music in the process,' Barber said in a statement. 'Singing in French has been like rediscovering my voice, my instrument. The French language, particularly when sung, is very beautiful to me. It is a great pleasure for me to sing, and I think that enjoyment comes through.' (Jill Barber)

Tracklist:
1. Petite fleur 02:43
2. J attendrai 03:49
3. Melancolie 04:04
4. Sous le ciel de Paris Sous le ciel de Paris 03:21
5. La Javanaise 03:17
6. Melody for Two En septembre sous la pluie (September in the Rain) 03:02
7. Je cherche un homme (I Want a Man) 02:47
8. N oublie jamais (Never Forget) 03:04
9. Quand les hommes vivront d amour 03:02
10. Les feuilles mortes (Autumn Leaves) 04:11
11. Plus bleu que tes yeux 03:24
12. Adieu Foulard Adieu Madras 02:16

Personnel:
Jill Barber, vocals
Richard Whiteman, piano
Nathan Hiltz, guitar
Jesse Barksdate, guitar
Adam Warner, percussion
Chendy León, percussion
Joe Phillips, bass
Bryden Baird, trumpet
Drew Jurecka, saxophones, accordion, violin, bass clarinet
Michael Davidson, vibraphone
Jay Danley, Tres Cubano

foobar2000 1.3.7 / Dynamic Range Meter 1.1.1
log date: 2019-08-12 16:27:37

––––––––––––––––––––––––––––––––––––––––
Analyzed: Jill Barber / Chansons
––––––––––––––––––––––––––––––––––––––––

DR Peak RMS Duration Track
––––––––––––––––––––––––––––––––––––––––
DR9 -0.30 dB -11.59 dB 2:43 01-Petite fleur
DR11 -0.28 dB -12.77 dB 3:49 02-J attendrai
DR9 -0.43 dB -11.44 dB 4:04 03-Melancolie
DR7 -0.31 dB -9.29 dB 3:17 04-La Javanaise
DR12 -0.38 dB -14.15 dB 3:21 05-Sous le ciel de Paris Sous le ciel de Paris
DR12 -0.30 dB -15.60 dB 3:02 06-Melody for Two En septembre sous la pluie (September in the Rain)
DR13 -0.29 dB -15.04 dB 2:47 07-Je cherche un homme (I Want a Man)
DR9 -0.33 dB -10.47 dB 3:04 08-N oublie jamais (Never Forget)
DR12 -0.29 dB -14.16 dB 3:02 09-Quand les hommes vivront d amour
DR11 -0.46 dB -14.84 dB 4:11 10-Les feuilles mortes (Autumn Leaves)
DR11 -0.28 dB -12.76 dB 3:24 11-Plus bleu que tes yeux
DR10 -0.64 dB -14.91 dB 2:16 12-Adieu Foulard Adieu Madras
––––––––––––––––––––––––––––––––––––––––

Number of tracks: 12
Official DR value: DR11

Samplerate: 48000 Hz
Channels: 2
Bits per sample: 24
Bitrate: 1462 kbps
Codec: FLAC
================================================================================


Thanks to the Original customer.