Tags
Language
Tags

The Incredible Jimmy Smith - Monster (1965) [2015, 24-bit/352 kHz]

Posted By: v3122
The Incredible Jimmy Smith - Monster (1965) [2015, 24-bit/352 kHz]

The Incredible Jimmy Smith - Monster (1965)
FLAC (Tracks) 24-bit/352 kHz | Official Digital Download | Time: 00:38:49
Soul-Jazz, Jazz-Funk, Boogaloo | Label: High Definition Tape Transfers | ~ 2.30 Gb

Monster is an album by American jazz organist Jimmy Smith arranged by Oliver Nelson. On the Billboard albums chart, Monster peaked at number 35, and at 5 on the top R&B albums chart…

~ wiki
The Incredible Jimmy Smith - Monster (1965):

Tracklist:

01. Goldfinger
02. St. James Infirmary
03. Gloomy Sunday
04. Theme From "Bewitched"
05. Theme From "The Munsters"
06. Theme From "The Man With The Golden Arm"
07. The Creeper
08. Monlope

foobar2000 1.6.5 / Замер динамического диапазона (DR) 1.1.1
Дата отчёта: 2021-08-02 18:09:17

––––––––––––––––––––––––––––––––––––––––
Анализ: Organ - Jimmy Smith / Arranged By, Conductor - Oliver Nelson / The Incredible Jimmy Smith ‎- Monster
––––––––––––––––––––––––––––––––––––––––

DR Пики RMS Продолжительность трека
––––––––––––––––––––––––––––––––––––––––
DR11 -1.23 дБ -16.73 дБ 6:22 01-Goldfinger (Part 1) Goldfinger (Part 2)
DR12 -2.96 дБ -19.70 дБ 5:11 02-St. James Infirmary
DR12 -0.85 дБ -18.05 дБ 3:55 03-Gloomy Sunday
DR12 -1.80 дБ -18.37 дБ 3:07 04-Theme From "Bewitched"
DR14 -3.20 дБ -19.74 дБ 3:45 05-Theme From "The Munsters"
DR11 -2.40 дБ -17.82 дБ 4:33 06-Theme From "The Man With The Golden Arm"
DR13 -2.66 дБ -19.65 дБ 5:30 07-The Creeper
DR11 -1.03 дБ -15.84 дБ 6:25 08-Monlope
––––––––––––––––––––––––––––––––––––––––

Количество треков: 8
Реальные значения DR: DR12

Частота: 352800 Гц
Каналов: 2
Разрядность: 24
Битрейт: 8277 кбит/с
Кодек: FLAC

All thanks go to the original releaser

Jimmy Smith in my Blog

Download The Incredible Jimmy Smith - Monster (1965):