Jimmy Scott - The Fabulous Songs Of Jimmy Scott (1960/2020) [Official Digital Download 24/96]

Posted By: pyatak
Jimmy Scott - The Fabulous Songs Of Jimmy Scott (1960/2020) [Official Digital Download 24/96]

Jimmy Scott - The Fabulous Songs Of Jimmy Scott (1960/2020) [Official Digital Download 24/96]
FLAC (tracks) 24-bit/96 kHz | Front Cover | Time - 40:48 minutes | 743 MB
Vocal Jazz | Label: RevOla, Official Digital Download

ames Victor Scott (July 17, 1925 – June 12, 2014), known professionally as Little Jimmy Scott or Jimmy Scott, was an American jazz vocalist known for his high natural contralto voice and his sensitivity on ballads and love songs.

After success in the 1940s and 1950s, Scott's career faltered in the early 1960s. He slid into obscurity before a comeback in the 1990s. His unusual singing voice was due to Kallmann syndrome, a rare genetic disorder that limited his height to 4 feet 11 inches (150 cm) until the age of 37, when he grew by 8 inches (20 cm). The syndrome prevented him from reaching classic puberty and left him with a high voice and unusual timbre.

TRACKLIST

1. Jimmy Scott - Sometimes I Feel Like A Motherless Child (Remastered)
2. Jimmy Scott - An Evening In Paradise (Remastered)
3. Jimmy Scott - If I Ever Lost You (Remastered)
4. Jimmy Scott - I'm Afraid The Masquerade Is Over (Remastered)
5. Jimmy Scott - Please Forgive Me (Remastered)
6. Jimmy Scott - How Else (Remastered)
7. Jimmy Scott - If You Are But A Dream (Remastered)
8. Jimmy Scott - The Way You Look Tonight (Remastered)
9. Jimmy Scott - Things That Are Love (Remastered)
10. Jimmy Scott - Everybody's Somebody's Fool (Remastered)
11. Jimmy Scott - Once (Remastered)
12. Jimmy Scott - What Good Would It Be? (Remastered)
13. Jimmy Scott - There Will Never Be Another You (Remastered)
14. Jimmy Scott - Time On My Hands (Remastered)
15. Jimmy Scott - Smile (Remastered)

foobar2000 1.6.2 / Dynamic Range Meter 1.1.1
log date: 2021-01-14 14:25:00

––––––––––––––––––––––––––––––––––––––––
Analyzed: Jimmy Scott / The Fabulous Songs Of Jimmy Scott
––––––––––––––––––––––––––––––––––––––––

DR Peak RMS Duration Track
––––––––––––––––––––––––––––––––––––––––
DR10 -2.00 dB -15.83 dB 3:12 01-Sometimes I Feel Like A Motherless Child (Remastered)
DR10 -2.21 dB -16.58 dB 2:58 02-An Evening In Paradise (Remastered)
DR8 -2.17 dB -15.25 dB 2:43 03-If I Ever Lost You (Remastered)
DR11 -1.30 dB -16.63 dB 3:34 04-I'm Afraid The Masquerade Is Over (Remastered)
DR8 -2.15 dB -15.10 dB 3:07 05-Please Forgive Me (Remastered)
DR9 -2.12 dB -15.86 dB 3:04 06-How Else (Remastered)
DR8 -2.41 dB -15.63 dB 2:39 07-If You Are But A Dream (Remastered)
DR10 -0.08 dB -15.27 dB 2:28 08-The Way You Look Tonight (Remastered)
DR12 0.00 dB -16.37 dB 2:29 09-Things That Are Love (Remastered)
DR9 -0.40 dB -14.70 dB 2:15 10-Everybody's Somebody's Fool (Remastered)
DR12 -0.19 dB -16.77 dB 2:22 11-Once (Remastered)
DR12 -1.87 dB -17.88 dB 2:30 12-What Good Would It Be? (Remastered)
DR11 -0.71 dB -14.80 dB 2:22 13-There Will Never Be Another You (Remastered)
DR10 -1.04 dB -15.29 dB 2:42 14-Time On My Hands (Remastered)
DR9 0.00 dB -13.99 dB 2:31 15-Smile (Remastered)
––––––––––––––––––––––––––––––––––––––––

Number of tracks: 15
Official DR value: DR10

Samplerate: 96000 Hz
Channels: 2
Bits per sample: 24
Bitrate: 1279 kbps
Codec: FLAC
================================================================================



Thanks to the Original customer.