Tags
Language
Tags

Jo David Meyer Lysne & Mats Eilertsen - Kroksjø (2020) [Official Digital Download 24/88]

Posted By: pyatak
Jo David Meyer Lysne & Mats Eilertsen - Kroksjø (2020) [Official Digital Download 24/88]

Jo David Meyer Lysne & Mats Eilertsen - Kroksjø (2020) [Official Digital Download 24/88]
FLAC (tracks) 24-bit/88.2 kHz | Front Cover | Time - 33:12 minutes | 530 MB
Jazz | Label: Hubro, Official Digital Download

The new album by the partnership of guitarist Jo David Meyer Lysne (born 1994) and double bassist Mats Eilertsen (born 1975) is a remarkable document that functions simultaneously as both a calm and meditative series of chill-out soundscapes, and as a rigorously poetic evocation of mood and place that one might expect to hear more readily in an art gallery installation.

It is also shockingly beautiful. The ecstatic shimmer of acoustic guitar and pedal steel textures meld into electronic echoes of what might be sleigh bells or a glass harmonica, in treated sounds that recall the ambient recordings of Brian Eno, or the organ-drones of early Terry Riley. Sinuous glissando slides and steadfast plucked-bass notes provide the backdrop to airy inventions that can seem as close to the test tones of a vintage audio demonstration disc as they do to conventional synth-voicings or effects. And although Meyer Lysne is a guitar virtuoso, and Eilertsen one of Europe’s leading jazz bassists, there’s not a lot of conventional guitar or bass to be heard. Throughout, a broken-beat rhythmic pulse formed from what appears to be the clicks of vinyl run-off grooves or odd turntable glitches, comes and goes, creating a formidable contrast between what sounds like music, and what sounds like sound.

TRACKLIST

1. Jo David Meyer Lysne & Mats Eilertsen - Lamyra
2. Jo David Meyer Lysne & Mats Eilertsen - Forve
3. Jo David Meyer Lysne & Mats Eilertsen - Strandsjø
4. Jo David Meyer Lysne & Mats Eilertsen - Byakjela
5. Jo David Meyer Lysne & Mats Eilertsen - Snoensøya
6. Jo David Meyer Lysne & Mats Eilertsen - Ålykkja
7. Jo David Meyer Lysne & Mats Eilertsen - Finna
8. Jo David Meyer Lysne & Mats Eilertsen - Furumokjela

foobar2000 1.3.16 / Dynamic Range Meter 1.1.1
log date: 2020-05-07 00:58:35

––––––––––––––––––––––––––––––––––––––––
Analyzed: Jo David Meyer Lysne & Mats Eilertsen / Kroksjø
––––––––––––––––––––––––––––––––––––––––

DR Peak RMS Duration Track
––––––––––––––––––––––––––––––––––––––––
DR14 -0.50 dB -18.42 dB 6:43 01-Lamyra
DR13 -0.50 dB -18.87 dB 2:39 02-Forve
DR11 -0.46 dB -15.46 dB 2:05 03-Strandsjø
DR7 -0.50 dB -12.53 dB 5:29 04-Byakjela
DR10 -0.50 dB -13.33 dB 2:38 05-Snoensøya
DR12 -0.50 dB -17.81 dB 6:33 06-AÌŠlykkja
DR10 -0.50 dB -13.98 dB 3:10 07-Finna
DR17 -0.50 dB -21.16 dB 2:59 08-Furumokjela
––––––––––––––––––––––––––––––––––––––––

Number of tracks: 8
Official DR value: DR12

Samplerate: 88200 Hz
Channels: 2
Bits per sample: 24
Bitrate: 2328 kbps
Codec: FLAC
================================================================================



Thanks to the Original customer.