Tags
Language
Tags
December 2022
Su Mo Tu We Th Fr Sa
27 28 29 30 1 2 3
4 5 6 7 8 9 10
11 12 13 14 15 16 17
18 19 20 21 22 23 24
25 26 27 28 29 30 31

Jody Miller - There's A Party Goin On (1972) [Official Digital Download]

Posted By: ciklon5
Jody Miller - There's A Party Goin On (1972) [Official Digital Download]

Jody Miller - There's A Party Goin On (1972) [Official Digital Download]
FLAC (tracks), Lossless [24bit-192kHz] | 29:50 | 1,02 Gb
Genre: Country / Label: Columbia - Legacy

Although she became famous for "Queen of the House," her response to Roger Miller's "King of the Road," Jody Miller pioneered a fusion of folk, country, and pop that set the stage for the folky country-pop of the '70s. Raised in Oklahoma, she was born Myrna Joy Miller and, inspired by the music of Joan Baez, learned to play guitar at the age of 14. Soon after, Miller joined a folk trio and began performing at a local coffeehouse. Lou Gottlieb, a member of folk group the Limelighters, heard her sing and was impressed enough to offer to help her get a recording contract, provided she move to Los Angeles. Miller initially declined, as she had recently married, but eventually she and her husband went to California to test the waters. A friend of the family arranged an audition with Capitol Records, which signed Miller while suggesting that she change her name from Myrna to the folkier "Jody."

Track List:
1.01 - Jody Miller - There's a Party Goin' On (2:39)
1.02 - Jody Miller - Everything I Own (3:03)
1.03 - Jody Miller - Be My Baby (2:36)
1.04 - Jody Miller - Manhattan, Kansas (2:47)
1.05 - Jody Miller - Delta Dawn (2:56)
1.06 - Jody Miller - The Happiest Girl in the U.S.A. (2:31)
1.07 - Jody Miller - Someone To Give My Love To (3:01)
1.08 - Jody Miller - To Know Him is to Love Him (2:46)
1.09 - Jody Miller - Your Love's Been a Long Time Coming (2:22)
1.10 - Jody Miller - Love's the Answer (2:41)
1.11 - Jody Miller - Let's All Go Down to the River (2:30)

foobar2000 1.6.10 / Dynamic Range Meter 1.1.1
log date: 2022-04-12 21:53:07

––––––––––––––––––––––––––––––––––––––––
Analyzed: Jody Miller / There's A Party Goin' On
––––––––––––––––––––––––––––––––––––––––

DR Peak RMS Duration Track
––––––––––––––––––––––––––––––––––––––––
DR11 -0.47 dB -15.47 dB 2:39 01-There's a Party Goin' On
DR11 -0.03 dB -14.64 dB 3:03 02-Everything I Own
DR12 -0.83 dB -17.23 dB 2:36 03-Be My Baby
DR12 -2.86 dB -18.99 dB 2:47 04-Manhattan, Kansas
DR11 -0.68 dB -14.83 dB 2:56 05-Delta Dawn
DR12 -1.30 dB -16.07 dB 2:31 06-The Happiest Girl in the U.S.A.
DR12 -0.29 dB -17.09 dB 3:01 07-Someone To Give My Love To
DR11 -1.48 dB -16.67 dB 2:46 08-To Know Him is to Love Him
DR12 -0.30 dB -15.95 dB 2:22 09-Your Love's Been a Long Time Coming
DR11 -1.50 dB -16.12 dB 2:41 10-Love's the Answer
DR12 -0.87 dB -15.98 dB 2:30 11-Let's All Go Down to the River
––––––––––––––––––––––––––––––––––––––––

Number of tracks: 11
Official DR value: DR12

Samplerate: 192000 Hz
Channels: 2
Bits per sample: 24
Bitrate: 4990 kbps
Codec: FLAC
================================================================================