Johan Brouwer - Plays Bach, Böhm, Couperin, Forqueray (Taskin Harpsichord) (2014) [TR24][OF]

Posted By: SERTiL
Johan Brouwer - Plays Bach, Böhm, Couperin, Forqueray (Taskin Harpsichord) (2014) [TR24][OF]

Johan Brouwer - Plays Bach, Böhm, Couperin, Forqueray (Taskin Harpsichord)
Classical | FLAC (tracks) 24-bit/96 kHz | 70:28 min | 1.63 GB | Digital booklet
Label: Aluid Records | Tracks: 18 | Rls.date: 2014

Bach and the French baroque: The working title of the programme is Bach and the French baroque. L’art de toucher le clavecin by François Couperin (1668-1733) was published in 1716 as a manual for the French style and gives important instructions for playing the harpsichord as regards finger positions and ornamentations. The préludes are written-out improvisations in the style of the Préludes non mésurée.

The Suites of Georg Böhm (1661-1733) were produced in an environment orientated towards France, like the court in German Celle, where the French consort of Duke Georg Wilhelm resided. After her husband’s death, she lived for some years in Lüneburg, where Böhm worked in the Johannis-Kirche. Besides the usual dances, the Suite in F Minor played here contains for instance a French Ciaconne.

Pascal Taskin: The instrument played is a copy built by David Rubio (1979) after an instrument by Pascal Taskin (1769). The original instrument remained in the possession of the Taskin family until 1952, when it passed into the hands of Raymond Russell, founder of the famous Russell Collection in Edinburgh. Taskin had his workshop in Paris as successor to Etienne Blanchet.

The chinoiserie was made by Ann MacTaggert after examples of instruments painted by Gerard Dagly. Dagly (1653-1714) was born in Spa and worked many years for the Prussian court in Berlin. My Rubio instrument was renovated in 2013 by Cornelis Bom (Nieuwolda), who introduced new strings with different measurements and a new intonation.

TRACKLIST

François Couperin (1668-1733)
1. L'art de toucher le clavecin - Premier Prélude 01:15
2. L'art de toucher le clavecin - Troisième Prélude (mesuré ) 01:34
3. L'art de toucher le clavecin - Septième Prélude… 02:43
4. La Superbe ou La Forqueray (fièrement, sans lenteur)

Antoine Forqueray (1671-1745)
5. La Couperin (noblement et marqué ) 05:11
6. La Sylva! (très tendrement) 06:39

Georg Böhm (1661-1733)
7. Suite F mol - Allemande 03:24
8. Suite F mol - Courante 01:25
9. Suite F mol - Sarabande 01:59
10. Suite F mol - Ciacona 03:17

Johann Sebastian Bach (1685 -1750)
11. Ricercar a tre voci BWV 1079 07:17
12. French suite c-moll BWV 813 - Allemande 04:02
13. French suite c-moll BWV 813 - Courante 02:32
14. French suite c-moll BWV 813 - Sarabande 04:01
15. French suite c-moll BWV 813 - Air 01:51
16. French suite c-moll BWV 813 - Menuet 02:26
17. French suite c-moll BWV 813 - Gigue 03:11
18. Präludium, Fuge & Allegro Es-Dur BWV 998 11:50

foobar2000 1.3.7 / Замер динамического диапазона (DR) 1.1.1
Дата отчёта: 2017-02-14 13:01:43

––––––––––––––––––––––––––––––––––––––––
Анализ: Johan Brouwer / Johan Brouwer plays Bach, Böhm, Couperin and Forqueray
––––––––––––––––––––––––––––––––––––––––

DR Пики RMS Продолжительность трека
––––––––––––––––––––––––––––––––––––––––
DR11 -4.35 дБ -18.06 дБ 1:15 01-L’Art de toucher le clavecin - Premier Prélude
DR10 -2.22 дБ -14.32 дБ 1:34 02-L’Art de toucher le clavecin - Troisième Prélude (mesuré)
DR10 -3.01 дБ -16.33 дБ 2:43 03-L’Art de toucher le clavecin - Septième Prélude (mesuré-lent)
DR12 -3.71 дБ -18.47 дБ 6:02 04-La Superbe ou La Forqueray (fièrement- sans lenteur)
DR10 -1.09 дБ -12.49 дБ 5:11 05-La Couperin (noblement et marqué)
DR11 -3.13 дБ -16.97 дБ 6:39 06-La Sylva (très tendrement)
DR11 -1.29 дБ -16.13 дБ 3:24 07-Suite F-moll - Allemande
DR10 -2.02 дБ -12.99 дБ 1:25 08-Suite F-moll - Courante
DR11 -1.71 дБ -16.39 дБ 1:59 09-Suite F-moll - Sarabande
DR11 -1.15 дБ -14.05 дБ 3:17 10-Suite F-moll - Ciaconne
DR10 -1.51 дБ -13.32 дБ 7:17 11-Ricercar a tre voci bwv 1079
DR10 -2.49 дБ -15.18 дБ 4:02 12-French suite c-moll bwv 813 - Allemande
DR10 -0.95 дБ -12.49 дБ 2:32 13-French suite c-moll bwv 813 - Courante
DR12 -2.98 дБ -17.11 дБ 4:01 14-French suite c-moll bwv 813 - Sarabande
DR10 -1.29 дБ -12.54 дБ 1:51 15-French suite c-moll bwv 813 - Air
DR12 -3.45 дБ -16.99 дБ 2:26 16-French suite c-moll bwv 813 - Menuet
DR10 -1.41 дБ -12.95 дБ 3:11 17-French suite c-moll bwv 813 - Gigue
DR10 -1.23 дБ -13.73 дБ 11:50 18-Präludium- Fuge & Allegro Es-Dur bwv 998
––––––––––––––––––––––––––––––––––––––––

Количество треков: 18
Реальные значения DR: DR11

Частота: 96000 Гц
Каналов: 2
Разрядность: 24
Битрейт: 3314 кбит/с
Кодек: FLAC
================================================================================


Thanks to the Original customer.