Tags
Language
Tags

John Legend - Darkness and Light (2016) [Official Digital Download]

Posted By: Pisulik
John Legend - Darkness and Light (2016) [Official Digital Download]

John Legend - Darkness and Light (2016) [Official Digital Download]
FLAC (tracks) 24-bit/48 kHz | Time - 45:54 minutes | 561 MB
Studio Master, Official Digital Download | Artwork: Front cover

Grammy - and Academy Award-winning R&B singer, songwriter, and pianist John Legend, born John Stephens, was a child prodigy who grew up in Ohio, where he began singing gospel and playing piano at the age of five. Stephens left his home state at 16 to attend college in Philadelphia, and it was there that he first found a larger audience. Not yet out of his teens, Stephens was tapped to play piano on Lauryn Hill's "Everything Is Everything," a Top 40 hit for the Fugees member's 1998 album The Miseducation of Lauryn Hill. After completing college, Stephens moved to New York, where he built a loyal following playing in nightclubs and releasing CDs, such as Live at Jimmy's Uptown (2001) and Live at SOB's (2003), that he sold at shows. He also became an in-demand session musician, playing and occasionally writing for a wide array of artists including Alicia Keys, Twista, Janet Jackson, and Kanye West.

It wasn't until West signed the young talent to his G.O.O.D. Music label that the Legend name was fully adopted with 2004's Solo Sessions, Vol. 1: Live at the Knitting Factory. Get Lifted, Legend's first studio album, was released that December. On the strength of the enduring single "Ordinary People," the album reached the Top Five of the Billboard 200. This led to three Grammy Awards: Best R&B Album, Best R&B Male Vocal Performance, and Best New Artist. Once Again, which peaked at number three on the Billboard 200 and at number one on the R&B/Hip-Hop Albums chart, followed in October 2006 and eventually went platinum. Live from Philadelphia became a Top Ten album, despite its limited retail presence. October 2008's Evolver, a more pop-oriented set, spun off the sprightly crossover hit "Green Light," while the album went Gold.

Legend started the following decade with another change of course. Wake Up!, in which he was backed by the Roots, was released in September 2010 with covers of still-relevant, socially aware songs like Harold Melvin & the Blue Notes' "Wake Up Everybody" and Donny Hathaway's "Little Ghetto Boy." It won the 2010 Grammy Award for Best R&B Album. After he toured with Sade, Legend collaborated with producers and writers including West and longtime creative partner Dave Tozer for Love in the Future, released in September 2013. It was his fifth consecutive release to peak within the Top Ten of the Billboard 200. The album also earned him his first number one hit, "All of Me," which peaked in the spring of 2014 but sold so well it ended up one of the Top Five best-selling singles of the year. Near the end of the year, he released the single "Glory." Written and recorded with Common for the soundtrack of the film Selma, it won the Academy Award early in 2015 for Best Original Song.

In December 2016, Legend delivered his fifth studio album, DARKNESS AND LIGHT. Unlike the four previous full-lengths, its production was handled almost entirely by one person, Blake Mills, whose work on Alabama Shakes' Sound & Color inspired Legend to reach out. Legend received songwriting support from Mills and the likes of John Ryan and Will Oldham, as well as Chance the Rapper, Miguel, and Alabama Shakes' Brittany Howard, who also made vocal contributions.

Tracklist:

01. I Know Better
02. Penthouse Floor
03. Darkness and Light
04. Overload
05. Love Me Now
06. What You Do to Me
07. Surefire
08. Right By You (for Luna)
09. Temporarily Painless
10. How Can I Blame You
11. Same Old Story
12. Marching Into the Dark

foobar2000 1.3.7 / Dynamic Range Meter 1.1.1
log date: 2017-10-11 03:29:55

––––––––––––––––––––––––––––––––––––––––
Analyzed: John Legend / Darkness and Light
––––––––––––––––––––––––––––––––––––––––

DR Peak RMS Duration Track
––––––––––––––––––––––––––––––––––––––––
DR6 -0.10 dB -8.07 dB 3:03 01-I Know Better
DR5 -0.04 dB -5.81 dB 4:44 02-Penthouse Floor
DR4 -0.03 dB -5.51 dB 3:51 03-Darkness and Light
DR6 -0.10 dB -8.13 dB 3:20 04-Overload
DR4 -0.10 dB -6.23 dB 3:30 05-Love Me Now
DR4 -0.04 dB -5.52 dB 3:21 06-What You Do to Me
DR4 -0.01 dB -5.41 dB 4:03 07-Surefire
DR6 -0.08 dB -7.02 dB 4:16 08-Right By You (for Luna)
DR4 -0.08 dB -5.54 dB 3:56 09-Temporarily Painless
DR5 -0.04 dB -7.15 dB 3:56 10-How Can I Blame You
DR6 -0.10 dB -7.93 dB 3:32 11-Same Old Story
DR5 -0.07 dB -6.77 dB 4:22 12-Marching Into the Dark
––––––––––––––––––––––––––––––––––––––––

Number of tracks: 12
Official DR value: DR5

Samplerate: 48000 Hz
Channels: 2
Bits per sample: 24
Bitrate: 1658 kbps
Codec: FLAC
================================================================================


All thanks go to the original releaser