Tags
Language
Tags

Judas Priest - Battle Cry (Live) (2016) [TR24][OF]

Posted By: SERTiL
Judas Priest - Battle Cry (Live) (2016) [TR24][OF]

Judas Priest - Battle Cry (Live)
Heavy Metal, Hard Rock | FLAC (tracks) 24-bit/48 kHz | 75:28 min | 1.03 GB | Digital booklet
Label: Columbia | Tracks: 15 | Rls.date: 2016

Judas Priest’s tour in support of their 17th studio album was one of the most extensive of the group’s entire career, consisting of 130 shows in 33 countries and offering a set-list that touched upon selections from nearly all of their classic albums. Fans can now relive the live Priest experience through “Battle Cry”.

TRACKLIST
1. (Intro) Battle Cry (Live from Battle Cry) 00:32
2. Dragonaut (Live from Battle Cry) 04:12
3. Metal Gods (Live from Battle Cry) 04:14
4. Devil's Child (Live from Battle Cry) 05:18
5. Victim of Changes (Live from Battle Cry) 08:59
6. Halls of Valhalla (Live from Battle Cry) 06:08
7. Redeemer of Souls (Live from Battle Cry) 04:10
8. Beyond the Realms of Death (Live from Battle Cry) 07:01
9. Jawbreaker (Live from Battle Cry) 04:05
10. Breaking the Law (Live from Battle Cry) 02:48
11. Hell Bent for Leather (Live from Battle Cry) 04:26
12. The Hellion (Live from Battle Cry) 00:37
13. Electric Eye (Live from Battle Cry) 04:36
14. You've Got Another Thing Coming (Live from Battle Cry) 11:02
15. Painkiller (Live from Battle Cry) 07:25

foobar2000 1.3.7 / Замер динамического диапазона (DR) 1.1.1
Дата отчёта: 2017-01-03 13:55:10

––––––––––––––––––––––––––––––––––––––––
Анализ: Judas Priest / Battle Cry
––––––––––––––––––––––––––––––––––––––––

DR Пики RMS Продолжительность трека
––––––––––––––––––––––––––––––––––––––––
DR9 -0.15 дБ -14.07 дБ 0:32 01-(Intro) Battle Cry (Live From Battle Cry)
DR6 -0.13 дБ -6.66 дБ 4:12 02-Dragonaut (Live From Battle Cry)
DR6 -0.13 дБ -7.17 дБ 4:14 03-Metal Gods (Live From Battle Cry)
DR6 -0.13 дБ -7.18 дБ 5:18 04-Devil's Child (Live From Battle Cry)
DR6 -0.13 дБ -7.23 дБ 8:59 05-Victim Of Changes (Live From Battle Cry)
DR6 -0.11 дБ -7.11 дБ 6:08 06-Halls Of Valhalla (Live From Battle Cry)
DR6 -0.13 дБ -6.65 дБ 4:10 07-Redeemer Of Souls (Live From Battle Cry)
DR6 -0.14 дБ -7.69 дБ 7:01 08-Beyond The Realms Of Death (Live From Battle Cry)
DR6 -0.14 дБ -6.76 дБ 4:05 09-Jawbreaker (Live From Battle Cry)
DR6 -0.14 дБ -7.42 дБ 2:48 10-Breaking The Law (Live From Battle Cry)
DR6 -0.13 дБ -7.05 дБ 4:26 11-Hell Bent For Leather (Live From Battle Cry)
DR8 -0.15 дБ -9.74 дБ 0:37 12-The Hellion (Live From Battle Cry)
DR6 -0.12 дБ -6.97 дБ 4:36 13-Electric Eye (Live From Battle Cry)
DR6 -0.14 дБ -7.49 дБ 11:02 14-You've Got Another Thing Coming (Live From Battle Cry)
DR5 0.00 дБ -6.52 дБ 7:25 15-Painkiller (Live From Battle Cry)
––––––––––––––––––––––––––––––––––––––––

Количество треков: 15
Реальные значения DR: DR6

Частота: 48000 Гц
Каналов: 2
Разрядность: 24
Битрейт: 1800 кбит/с
Кодек: FLAC
================================================================================


Thanks to the Original customer.
My Blog mp3, flac & HDtracks