Tags
Language
Tags

Kaori Muraji - Soleil: Portraits 2 (2010/2016)

Posted By: v3122
Kaori Muraji - Soleil: Portraits 2 (2010/2016)

Kaori Muraji - Soleil: Portraits 2 (2010/2016)
FLAC (Tracks) 24-bit/44.1 kHz | Official Digital Download | Time: 00:59:26
Classical, Guitar | Decca | ~ 527 Mb

Kaori Muraji (村治佳織; born 14 April 1978) is a Japanese classical guitarist. She is the first Japanese artist to have signed an exclusive international contract with Decca Music Group.

Muraji learned to play the guitar from the age of 3 on. First she was taught by her father and from the age of ten by the guitarist Shinichi Fukuda. In the early 1990s she won several guitar competition in Japan and in 1993 gave her debut recital in the Tsuda Hall. In the same year she published with Espressivo her first album and in the following she had her Orchestra debut with the Japan Philharmonic Orchestra.

In 1997 she moved to Europe to study under Alberto Ponce at the Ecole Normale de Musique in Paris. After her graduation 1999 she moved back to Japan.

~ wiki
Kaori Muraji - Soleil: Portraits 2 (2010/2016):

Tracklist:

01. Harrison: Here Comes the Sun (2:11)
02. Bizet: Carmen Suite (Excerpt) (7:23)
03. Farrar: Have You Never Been Mellow? (3:49)
04. Dyens: Libra Sonatine: 3. Fuoco (3:33)
05. Bonfa: Samba de Orfeu (1:28)
06. Rodgers: The Sound of Music (4:44)
07. O'Sullivan: Alone Again (Naturally) (4:43)
08. Mangore: La Catedral: 1. Preludio (Saudade) (2:20)
09. Mangore: La Catedral: 2. Andante religioso (1:50)
10. Mangore: La Catedral: 3. Allegro solemne (3:47)
11. Jarrett: The Koln Concert: Pt.2c (6:22)
12. Bonfa: Luzes do Rio (Moonlight in Rio) (2:48)
13. Pearsons: El Dia Antes (3:51)
14. Chopin: 24 Preludes, Op.28: No.15 in D-flat major "Raindrop" (5:05)
15. Hamlisch: The Way We Were (5:32)

Kaori Muraji - guitar

foobar2000 1.6.11 / Dynamic Range Meter 1.1.1
log date: 2022-06-12 18:04:42

––––––––––––––––––––––––––––––––––––––––
Analyzed: Kaori Muraji / Soleil: Portraits 2
––––––––––––––––––––––––––––––––––––––––

DR Peak RMS Duration Track
––––––––––––––––––––––––––––––––––––––––
DR12 -4.55 dB -22.74 dB 2:11 01-Harrison: Here Comes the Sun
DR17 -0.21 dB -22.12 dB 7:23 02-Bizet: Carmen Suite (Excerpt)
DR14 -4.35 dB -23.11 dB 3:49 03-Farrar: Have You Never Been Mellow?
DR16 -0.24 dB -21.37 dB 3:33 04-Dyens: Libra Sonatine: 3. Fuoco
DR13 -7.79 dB -25.66 dB 1:28 05-Bonfa: Samba de Orfeu
DR13 -7.24 dB -25.15 dB 4:44 06-Rodgers: The Sound of Music
DR17 -0.28 dB -22.14 dB 4:43 07-O'Sullivan: Alone Again (Naturally)
DR11 -11.44 dB -27.35 dB 2:20 08-Mangore: La Catedral: 1. Preludio (Saudade)
DR13 -3.62 dB -26.28 dB 1:50 09-Mangore: La Catedral: 2. Andante religioso
DR12 -5.73 dB -22.94 dB 3:47 10-Mangore: La Catedral: 3. Allegro solemne
DR14 -6.73 dB -25.61 dB 6:22 11-Jarrett: The Koln Concert: Pt.2c
DR15 -0.18 dB -21.78 dB 2:48 12-Bonfa: Luzes do Rio (Moonlight in Rio)
DR14 -5.48 dB -22.62 dB 3:51 13-Pearsons: El Dia Antes
DR13 -4.96 dB -24.90 dB 5:05 14-Chopin: 24 Preludes, Op.28: No.15 in D-flat major 'Raindrop'
DR14 -7.30 dB -25.80 dB 5:32 15-Hamlisch: The Way We Were
––––––––––––––––––––––––––––––––––––––––

Number of tracks: 15
Official DR value: DR14

Samplerate: 44100 Hz
Channels: 2
Bits per sample: 24
Bitrate: 1166 kbps
Codec: FLAC

All thanks go to the original releaser

Kaori Muraji in my Blog

Download Kaori Muraji - Soleil: Portraits 2 (2010/2016):