Subcategories

Kayla Waters - Apogee (2017) [Official Digital Download]

Posted By: SERTiL
Kayla Waters - Apogee (2017) [Official Digital Download]

Kayla Waters - Apogee (2017)
FLAC (tracks) 24-bit/44.1 kHz | Time - 41:56 minutes | 473 MB
Studio Master, Official Digital Download | Artwork: Front Cover

Kayla Waters has a musical style that is unapologetically unique. It’s an effervescent mixture of contemporary jazz, soul, indie, rhythm and blues, and inspirational music. “APOGEE” is an astronomical term that refers to the point in orbit of a heavenly body, which is at its highest and most distant point from the earth. It is in essence, an apex or climactic moment in time and space. Kayla likens this to an awakening in oneself that can only be reached by communing with God, the Creator of the universe, and everything therein. Titles on the record reflect the destinations and points of interest on a journey through life. The record begins with "Earth Arrival" as Kayla confidently announces herself through "I Am." "Sunkissed" brings positive light and happiness, while "Heaven Is Here" consistently reminds us that one can experience the ever-present beauty of life and its blessings in this earthly realm. Other songs like "Freedom March" and "The Dream" let us know that we are not living in a perfect world, to press towards world freedom and live with purpose to fulfill our dreams. By the time we are re-energized by "Elevation Bop," it is time for us to experience "Spirit Awakening" and immerse ourselves in the newness of life, along with its regenerated thoughts, and greater awareness of who we are. It is only then that we are equipped to "Look To Love" as our guide and be inspired to love and be loved. Kayla encourages us to love even when it appears to be nonexistent or frozen on "Pluto Departure." Throughout Kayla Waters’ ground-breaking "Apogee" record, you can hear a consistent thread of triumphant rhythms, heartfelt melodies, chords and harmonies that lovingly weave themselves among the hearts, minds, and souls of the listeners to inspire them to deeper depths and higher heights.



Tracklist:
01. Earth Arrival
02. I Am
03. Sunkissed
04. Heaven Is Here
05. Freedom March
06. The Dream
07. Elevation Bop
08. Spirit Awakening
09. Look to Love
10. Pluto Departure
11. Apogee

foobar2000 1.3.7 / Dynamic Range Meter 1.1.1
log date: 2017-11-08 19:08:14

––––––––––––––––––––––––––––––––––––––––
Analyzed: Kayla Waters / Apogee
––––––––––––––––––––––––––––––––––––––––

DR Peak RMS Duration Track
––––––––––––––––––––––––––––––––––––––––
DR6 -0.54 dB -8.52 dB 2:15 01-Earth Arrival
DR6 -0.52 dB -8.44 dB 4:34 02-I Am
DR6 -0.54 dB -7.51 dB 3:24 03-Sunkissed
DR7 -0.54 dB -8.97 dB 4:27 04-Heaven Is Here
DR6 -0.54 dB -7.88 dB 3:21 05-Freedom March
DR9 -0.54 dB -10.96 dB 4:45 06-The Dream
DR7 -0.54 dB -9.55 dB 4:43 07-Elevation Bop
DR7 -0.54 dB -9.69 dB 3:50 08-Spirit Awakening
DR9 -0.54 dB -11.72 dB 4:41 09-Look to Love
DR6 -0.54 dB -8.35 dB 1:59 10-Pluto Departure
DR7 -0.54 dB -9.54 dB 4:02 11-Apogee
––––––––––––––––––––––––––––––––––––––––

Number of tracks: 11
Official DR value: DR7

Samplerate: 44100 Hz
Channels: 2
Bits per sample: 24
Bitrate: 1617 kbps
Codec: FLAC
================================================================================


Thanks to the Original customer.