Kent Nagano - Danse Macabre (2016) [TR24][OF]

Posted By: SERTiL
Kent Nagano - Danse Macabre (2016) [TR24][OF]

Kent Nagano - Danse Macabre
Classical | FLAC (tracks) 24-bit/96 kHz | 69:21 min | 1.28 GB | Digital booklet
Label: Decca | Tracks: 06 | Rls.date: 2016

The supernatural meets technical wizardry in this spectacularly recorded program of rare and familiar music to celebrate Halloween.

Kent Nagano conducts some of the best-loved classics of the macabre – including Rimsky-Korsakov’s technicolor re-orchestration of Mussorgsky’s Night on a Bare Mountain and Dukas’s The Sorcerer’s Apprentice which achieved fame on the soundtrack for Disney’s film ‘Fantasia’.

The album is also filled with rarities such as Balakirev’s tone poem Tamara and Charles Ives’s Hallowe’en, the first of his ‘Three Outdoor Scenes’ of which Central Park in the Dark is the best-known.

This is the second recording to be released in Decca’s newly revived association with the Montreal Symphony under Music Director Kent Nagano. Always a benchmark for supreme audiophile quality this relationship now bears fruit with innovative and unusual repertoire: the first release of the rare Honegger/Ibert opera L’Aiglon (the first-ever recording of the complete opera) was an immediate critical success, voted ‘Album of the Week’ in The Sunday Times and ‘Recording of the Month’ in Opera magazine.

TRACKLIST

Paul Dukas: L'Apprenti Sorcier
1. L'Apprenti Sorcier

Antonín Dvorák: The Noonday Witch, Op.108, B.196
2. The Noonday Witch, Op.108, B.196

Modest Petrovich Mussorgsky: A Night On The Bare Mountain
3. A Night On The Bare Mountain

Mily Alexeyevich Balakirev: Tamara
4. Tamara

Camille Saint-Saëns: Danse Macabre, Op.40, R.171
5. Danse Macabre, Op.40, R.171

Charles Edward Ives: Three Outdoor Scenes
6. Hallowe'en

foobar2000 1.3.7 / Замер динамического диапазона (DR) 1.1.1
Дата отчёта: 2017-01-05 18:16:23

––––––––––––––––––––––––––––––––––––––––
Анализ: Orchestre Symphonique de Montréal, Kent Nagano / Danse Macabre
––––––––––––––––––––––––––––––––––––––––

DR Пики RMS Продолжительность трека
––––––––––––––––––––––––––––––––––––––––
DR16 0.00 дБ -21.84 дБ 10:40 01-L'Apprenti Sorcier
DR16 -0.14 дБ -23.10 дБ 14:55 02-The Noonday Witch, Op.108, B.196
DR15 -0.18 дБ -20.61 дБ 11:51 03-A Night On The Bare Mountain
DR16 -0.18 дБ -22.69 дБ 22:05 04-Tamara
DR16 -0.50 дБ -23.65 дБ 7:23 05-Danse Macabre, Op.40, R.171
DR13 -0.20 дБ -26.35 дБ 2:32 06-Three Outdoor Scenes: Hallowe'en
––––––––––––––––––––––––––––––––––––––––

Количество треков: 6
Реальные значения DR: DR15

Частота: 96000 Гц
Каналов: 2
Разрядность: 24
Битрейт: 2640 кбит/с
Кодек: FLAC
================================================================================


Thanks to the Original customer.
My Blog mp3, flac & HDtracks