King Crimson - Radical Action To Unseat the Hold of Monkey Mind (Live) (2017) [Official Digital Download]

Posted By: SERTiL
King Crimson - Radical Action To Unseat the Hold of Monkey Mind (Live) (2017) [Official Digital Download]

King Crimson - Radical Action To Unseat the Hold of Monkey Mind (Live) (2017)
FLAC (tracks) 24-bit/44.1 kHz | Time - 160:49 minutes | 1.77 GB
Studio Master, Official Digital Download | Artwork: Digital Booklet

It has been stated many times that King Crimson is not so much a band as it is “a way of doing things”. Less frequently stated but equally true, is the fact that the band inevitably seeks different ways of doing things. The current incarnation of the band, 2014 – the present day, has already released two taster sets in the form of 2015’s Live at the Orpheum mini-album and the vinyl picture disc EP that accompanied the 2015 tours of Canada and Japan, while the full raw concert performance from a single night in Toronto in 2015 was presented as a 2CD set earlier this year to great acclaim. Now, with the release of Radical Action comes the most fully realised audio and visual statement from this band to date, running to three themed CDs and a Blu-Ray disc offering the filmed content along with an audio only option in lossless high resolution stereo and surround sound.

The set includes at least one performance of every song/piece of music played by King Crimson in 2015, some pieces originally composed in 1969 the year of the band’s inception, others composed/initially performed at a variety of points since, some new to the tour, all arranged for this specific line-up. Indeed it is characteristic of this King Crimson – in direct contrast to all other post 1970s line-ups - to feature a broad range of material from the 1969 - 1974 era, performed in such a manner as to maintain much of what made the music so arresting when first issued, while arranged for fresh interpretation by the seven piece line-up of today. As Fripp put it (when asked what the title of the album meant to him): “What I like about this band is, that what it is actually doing is not what it appears to be doing…”. The idea of King Crimson re-imagined, that the music as presented is new, irrespective of when originally composed, is the key element in this band’s makeup.

The set will be released to coincide with King Crimson’s most extensive European tour since 1974, with performances slated to include, for the first time ever, material from all seven of King Crimson’s 1969 – 1974 iconic studio albums.

Audio: Three themed CDs of material recorded in 2015, each forming a separate discrete performance with audio selected from a variety of shows and fully mixed from multi-track tapes by Chris Porter, Robert Fripp and David Singleton. As no audience is audible between tracks, this allows for a “virtual studio album” effect. (The current King Crimson line-up was deliberately conceived as a performing band rather than as a band concerned with making full studio recordings).

Video: Among the problems most associated with filming live performance, perhaps the key problems are those of the film-makers’ cameras intruding on the audience’s capacity to enjoy the show without interruption and the intrusion of the cameras on the band’s performance. In effect, both performance and audience response must be misrepresented to approximate a live show for later consumption. In order to record the performances more accurately, a series of Japanese concerts was captured via a number of discreet cameras in a “video vérité” style – with neither band nor audience disturbed by filming – by Trevor Wilkins who also edited and assembled the footage.

Tracklist:
01. Larks Tongues in Aspic, Pt. On
02. Radical Action (To Unseat the
03. Level Five
04. The Light of Day
05. The Hell Hounds of Krim
06. The ConstruKction of Light
07. The Talking Drum
08. Larks Tongues in Aspic, Pt. Tw
09. Peace
10. Pictures of a City
11. Banshee Legs Bell Hassle
12. Easy Money
13. VROOOM
14. Suitable Grounds for the Blues
15. Interlude
16. The Letters
17. Sailor’s Tale
18. A Scarcity of Miracle
19. Red
20. One More Red Nightmare
21. Epitaph
22. Starless
23. Devil Dogs of Tessellation Row
24. The Court of the Crimson King
25. 21st Century Schizoid Man

Personnel:
Mel Collins: Saxes & flute
Robert Fripp: Guitar & keyboards
Gavin Harrison: Drums
Jakko Jakszyk: Guitar & voice
Tony Levin: Basses & stick
Pat Mastelotto: Drums
Bill Rieflin: Drums & keyboards

foobar2000 1.3.7 / Dynamic Range Meter 1.1.1
log date: 2019-05-15 16:57:29

––––––––––––––––––––––––––––––––––––––––
Analyzed: King Crimson / Radical Action To Unseat the Hold of Monkey Mind (Live)
––––––––––––––––––––––––––––––––––––––––

DR Peak RMS Duration Track
––––––––––––––––––––––––––––––––––––––––
DR9 -2.14 dB -15.46 dB 10:39 01-Larks’ Tongues in Aspic, Pt. One
DR9 -0.44 dB -11.75 dB 10:31 02-Radical Action (To Unseat the Hold of Monkey Mind/Meltdown/Radical Action II
DR8 -0.57 dB -11.25 dB 6:47 03-Level Five
DR10 -3.24 dB -16.48 dB 5:50 04-The Light of Day
DR8 -2.46 dB -12.97 dB 3:38 05-The Hell Hounds of Krim
DR8 -2.97 dB -13.39 dB 6:23 06-The ConstruKction of Light
DR9 -1.71 dB -14.16 dB 3:49 07-The Talking Drum
DR12 -7.65 dB -24.02 dB 2:07 09-Peace
DR11 -7.04 dB -21.74 dB 1:38 11-Banshee Legs Bell Hassle
DR10 -1.17 dB -13.18 dB 8:23 12-Easy Money
DR9 -1.00 dB -13.04 dB 4:53 13-VROOOM
DR9 -1.20 dB -12.04 dB 4:49 14-Suitable Grounds for the Blues
DR10 -7.94 dB -21.68 dB 2:21 15-Interlude
DR7 -1.97 dB -11.60 dB 6:38 17-Sailor's Tale
DR9 -1.95 dB -14.21 dB 6:51 18-A Scarcity of Miracle
DR9 -1.09 dB -11.90 dB 6:29 19-Red
DR10 -1.23 dB -12.37 dB 6:01 20-One More Red Nightmare
DR8 -1.51 dB -13.23 dB 12:15 22-Starless
DR8 -3.80 dB -14.39 dB 2:58 23-Devil Dogs of Tessellation Row
DR9 -1.78 dB -13.98 dB 6:58 24-The Court of the Crimson King
––––––––––––––––––––––––––––––––––––––––

Number of tracks: 20
Official DR value: DR9

Samplerate: 44100 Hz
Channels: 2
Bits per sample: 24
Bitrate: 1541 kbps
Codec: FLAC
================================================================================

––––––––––––––––––––––––––––––––––––––––
Analyzed: King Crimson / Radical Action To Unseat the Hold of Monkey Mind (Live)
––––––––––––––––––––––––––––––––––––––––

DR Peak RMS Duration Track
––––––––––––––––––––––––––––––––––––––––
DR8 -2.33 dB -12.59 dB 6:45 08-Larks’ Tongues in Aspic, Pt. Two
DR10 -1.60 dB -13.26 dB 8:15 10-Pictures of a City
DR6 -2.07 dB -13.15 dB 6:28 16-The Letters
DR10 -1.60 dB -14.25 dB 8:42 21-Epitaph
DR8 -2.31 dB -12.28 dB 10:58 25-21st Century Schizoid Man
––––––––––––––––––––––––––––––––––––––––

Number of tracks: 5
Official DR value: DR8

Samplerate: 48000 Hz
Channels: 2
Bits per sample: 24
Bitrate: 1707 kbps
Codec: FLAC
================================================================================


Thanks to the Original customer.