KlangVerwaltung - Beethoven- Sinfonie Nr. 3 & Nr. 8 (2021) [Official Digital Download]

Posted By: pyatak
KlangVerwaltung - Beethoven- Sinfonie Nr. 3 & Nr. 8 (2021) [Official Digital Download]

KlangVerwaltung - Beethoven- Sinfonie Nr. 3 & Nr. 8 (2021) [Official Digital Download]
FLAC (tracks) 24-bit/44.1 kHz | Front Cover | Time - 69:53 minutes | 653 MB
Classical | Label: Farao Classics, Official Digital Download

A fine alternative to conventional renditions on modern instruments, this Farao release of Ludwig van Beethoven's Symphony No. 3 in E flat major, "Eroica," and his Symphony No. 8 in F major presents both works in vivid, historically informed performances by the German chamber orchestra KlangVerwaltung, scrupulously conducted by Enoch zu Guttenberg. These readings are a bit reminiscent of the Beethoven performances on Archiv by John Eliot Gardiner with the Orchestre Révolutionnaire et Romantique, or those by Roy Goodman and Monica Huggett with the Hanover Band on Nimbus, insofar as the tempos are quite brisk and lively, the instrumentation is authentic and the orchestra is quite small and lean. But one feature of this recording that might be annoying to some listeners and a potential turn off is the unusually heavy sound of the timpani, which is disproportionate to the lighter tone of the rest of the ensemble. This booming quality was no doubt exaggerated by the resonant acoustics and was insufficiently controlled in the mixing, so it tends to be distracting at higher volumes. However, the playing in all other aspects is exceptional, thanks to Guttenberg's meticulous direction and the specialized skills of these top-notch musicians. The reproduction is clean and crisp, with realistic presence and color.

TRACKLIST

1. KlangVerwaltung - Allegro con brio
2. KlangVerwaltung - Marcia funebre. Adagio assai
3. KlangVerwaltung - Scherzo. Allegro vivace
4. KlangVerwaltung - Finale. Allegro molto
5. KlangVerwaltung - Allegro vivace e con brio
6. KlangVerwaltung - Allegretto scherzando
7. KlangVerwaltung - Tempo di Menuetto
8. KlangVerwaltung - Allegro vivace

foobar2000 1.6.2 / Dynamic Range Meter 1.1.1
log date: 2021-06-23 18:20:01

––––––––––––––––––––––––––––––––––––––––
Analyzed: KlangVerwaltung / Beethoven: Sinfonie Nr. 3 & Nr. 8
––––––––––––––––––––––––––––––––––––––––

DR Peak RMS Duration Track
––––––––––––––––––––––––––––––––––––––––
DR13 -0.40 dB -18.22 dB 14:13 01-Allegro con brio
DR12 -0.40 dB -19.01 dB 13:04 02-Marcia funebre. Adagio assai
DR13 -0.40 dB -19.67 dB 5:30 03-Scherzo. Allegro vivace
DR12 -0.40 dB -17.79 dB 11:44 04-Finale. Allegro molto
DR12 -0.40 dB -17.19 dB 9:44 05-Allegro vivace e con brio
DR15 -6.38 dB -26.33 dB 3:47 06-Allegretto scherzando
DR14 -2.04 dB -21.01 dB 4:21 07-Tempo di Menuetto
DR14 -0.40 dB -18.84 dB 7:30 08-Allegro vivace
––––––––––––––––––––––––––––––––––––––––

Number of tracks: 8
Official DR value: DR13

Samplerate: 44100 Hz
Channels: 2
Bits per sample: 24
Bitrate: 1333 kbps
Codec: FLAC
================================================================================



Thanks to the Original customer.