Kojey Radical - Cashmere Tears (2019) [Official Digital Download]

Posted By: Pisulik
Kojey Radical - Cashmere Tears (2019) [Official Digital Download]

Kojey Radical - Cashmere Tears (2019)
FLAC (tracks) 24-bit/44.1 kHz | Time - 29:29 minutes | 332 MB
Studio Master, Official Digital Download | Artwork: Front cover

Kojey Radical is something of an anomaly among black British male rappers. When I encounter him in the library at Shoreditch House, he is serving much the same meticulous yet effortless look I first observed him in, outside of a much-delayed Tokyo James show at London Fashion Week – an amalgam of street and dandy which borders on the princely. He reclines in a Patta two-piece paired with Dior Saddle bag, pearl bracelets, a heart-shaped locket and Jil Sander boots; all worn with a casual energy. In both his music and fashion Kojey shrugs off the traditionally austere impositions of hypermasculinity in favour of something nobler and much more interesting.

Indeed, no one could ever accuse Kojey of not using the full potential of his voice; the 26-year-old black British multidisciplinary artist sings, raps, and performs spoken word in his music, but figuratively, he is a man unafraid to immerse himself and his art in sensitive subjects. Be it reflections on the hypervigilance instilled by a world of mass shootings and violence, reflections on faith – or the waning of it – or the allyship of showing the diversity of gender expression and sexuality in his music videos, he shows a keen awareness of his ability as an artist to uplift and meaningfully mould the conversation.

Despite some clear influences and a deployment of forms and styles ranging from gospel and spoken word to grime and hip hop, Kojey’s musical endeavours enjoy a certain liminality, encompassing multiple genres and all the spaces between, without necessarily feeling the need to definitively declare itself any one thing. This is fitting for a man who attempts to constellate his broad talents – illustration, fashion design and, of course, music – in service of a fully realised artistic expression. Ahead of the release of his upcoming musical project, CASHMERE TEARS, Another Man caught up with the artist.

Tracklist:

01. Where Do I Begin
02. 2020
03. Can't Go Back
04. Sugar (feat. Amaarae)
05. Cashmere Tears
06. Hours
07. Eleven
08. Down2This
09. Feel About It
10. Last Night

foobar2000 1.3.7 / Dynamic Range Meter 1.1.1
log date: 2019-09-11 06:01:34

––––––––––––––––––––––––––––––––––––––––
Analyzed: Kojey Radical / Cashmere Tears
––––––––––––––––––––––––––––––––––––––––

DR Peak RMS Duration Track
––––––––––––––––––––––––––––––––––––––––
DR7 -0.50 dB -9.43 dB 2:00 01-Where Do I Begin
DR7 -1.50 dB -9.89 dB 3:37 02-2020
DR6 -0.45 dB -7.83 dB 2:51 03-Can't Go Back
DR8 -0.50 dB -9.62 dB 2:46 04-Sugar (feat. Amaarae)
DR8 -0.50 dB -9.87 dB 3:31 05-Cashmere Tears
DR8 -0.50 dB -10.30 dB 3:10 06-Hours
DR9 -0.50 dB -10.95 dB 3:00 07-Eleven
DR6 -2.00 dB -11.02 dB 1:27 08-Down2This
DR7 -0.50 dB -9.07 dB 3:44 09-Feel About It
DR7 -2.00 dB -11.60 dB 3:29 10-Last Night
––––––––––––––––––––––––––––––––––––––––

Number of tracks: 10
Official DR value: DR7

Samplerate: 44100 Hz
Channels: 2
Bits per sample: 24
Bitrate: 1521 kbps
Codec: FLAC
================================================================================


All thanks go to the original releaser