Konstantin Lifschitz - Beethoven: 32 Sonatas (2020) [Official Digital Download 24/48]

Posted By: SERTiL
Konstantin Lifschitz - Beethoven: 32 Sonatas (2020) [Official Digital Download 24/48]

Konstantin Lifschitz - Beethoven: 32 Sonatas (2020)
FLAC (tracks) 24-bit/48 kHz | Time - 11:52:59 | 6.38 GB
Studio Master, Official Digital Download | Artwork: Digital Booklet

In a world like ours, shaped by centrifugal forces, even a monumental corpus like Beethoven’s thirty wo piano sonatas can appear in a new light. Chronological examination of its genesis reveals fascinating parallels. – The Sonatas op.2 were published in the last year of the French Revolution. The ensuing wave of political migration reached Vienna and also affected Elector Maximilian Franz, who was not only the brother of Marie Antoinette and Emperor Joseph II but had also been Beethoven’s employer in Bonn. – Beethoven gave compositional form to the triumph and downfall of a tyrant who brought war to Europe and occupied Vienna. – After the international peace conference of 1815, he vigorously embarked on writing modernistic late works in opposition to the emerging police state and its postmodern entertainment culture. Konstantin Lifschitz applies strict criteria in order to realise the groundbreaking compositional dynamics of these works. He shows his musical independence by supplementing the cycle of sonatas with the Allegretto WoO 53, and still has much to tell us about it, defying past and present fashions. The fact that he recorded the massive cycle live on eight consecutive days also makes this set a monument in its own right.

Tracklist:
001. Sonata No. 1 in F Minor, Op. 2 No. 1: I. Allegro (7:04)
002. Sonata No. 1 in F Minor, Op. 2 No. 1: II. Adagio (5:18)
003. Sonata No. 1 in F Minor, Op. 2 No. 1: III. Menuetto. Allegretto (3:25)
004. Sonata No. 1 in F Minor, Op. 2 No. 1: IV. Prestissimo (6:53)
005. Sonata No. 2 in A Major, Op. 2 No. 2: I. Allegro vivace (11:17)
006. Sonata No. 2 in A Major, Op. 2 No. 2: II. Largo appassionato (9:26)
007. Sonata No. 2 in A Major, Op. 2 No. 2: III. Scherzo. Allegretto (3:43)
008. Sonata No. 2 in A Major, Op. 2 No. 2: IV. Rondo. Grazioso (7:15)
009. Sonata No. 3 in C Major, Op. 2 No. 3: I. Allegro con brio (10:50)
010. Sonata No. 3 in C Major, Op. 2 No. 3: II: Adagio (9:25)
011. Sonata No. 3 in C Major, Op. 2 No. 3: III. Scherzo. Allegro (3:10)
012. Sonata No. 3 in C Major, Op. 2 No. 3: IV. Allegro assai (5:43)
013. Sonata No. 5 in C Minor, Op. 10 No. 1: I. Allegro molto e con brio (6:33)
014. Sonata No. 5 in C Minor, Op. 10 No. 1: II. Adagio molto (9:35)
015. Allegretto (WoO 53) (3:49)
016. Sonata No. 5 in C Minor, Op. 10 No. 1: III. Finale. Prestissimo (4:40)
017. Sonata No. 6 in F Major, Op. 10 No. 2: I. Allegro (9:28)
018. Sonata No. 6 in F Major, Op. 10 No. 2: II .Allegretto (4:07)
019. Sonata No. 6 in F Major, Op. 10 No. 2: III. Presto (4:04)
020. Sonata No. 7 in D Major, Op. 10 No. 3: I. Presto (7:14)
021. Sonata No. 7 in D Major, Op. 10 No. 3: II. Largo e mesto (11:01)
022. Sonata No. 7 in D Major, Op. 10 No. 3: III. Menuetto. Allegro (2:50)
023. Sonata No. 7 in D Major, Op. 10 No. 3: IV. Rondo. Allegro (5:00)
024. Grande Sonate No. 4 in E-Flat Major, Op. 7: I. Allegro molto e con brio (7:35)
025. Grande Sonate No. 4 in E-Flat Major, Op. 7: II. Largo con gran espressione (10:58)
026. Grande Sonate No. 4 in E-Flat Major, Op. 7: III. Allegro (5:08)
027. Grande Sonate No. 4 in E-Flat Major, Op. 7: IV. Rondo. Poco allegretto e grazioso (7:44)
028. Grande Sonate No. 8 in C Minor, Op. 13 "Pathétique": I. Grave - Allegro di molto e con brio (9:37)
029. Grande Sonate No. 8 in C Minor, Op. 13 "Pathétique": II. Adagio cantabile (5:10)
030. Grande Sonate No. 8 in C Minor, Op. 13 "Pathétique": III. Rondo. Allegro (5:05)
031. Sonata No. 9 in E Major, Op. 14 No. 1: I. Allegro (7:16)
032. Sonata No. 9 in E Major, Op. 14 No. 1: II. Allegretto (3:42)
033. Sonata No. 9 in E Major, Op. 14 No. 1: III. Rondo. Allegro comodo (3:32)
034. Sonata No. 10 in G Major, Op. 14 No. 2: I. Allegro (7:15)
035. Sonata No. 10 in G Major, Op. 14 No. 2: II. Andante (5:26)
036. Sonata No. 10 in G Major, Op. 14 No. 2: III. Scherzo. Allegro assai (3:36)
037. Grande Sonate No. 11 in B-Flat Major, Op. 22: I: Allegro con brio (7:55)
038. Grande Sonate No. 11 in B-Flat Major, Op. 22: II. Adagio con molto espressione (9:09)
039. Grande Sonate No. 11 in B-Flat Major, Op. 22: III. Minuetto (3:29)
040. Grande Sonate No. 11 in B-Flat Major, Op. 22: IV. Rondo. Allegretto (6:28)
041. Grande Sonate No. 12 in A-Flat Major, Op. 26: I. Andante con variazioni (8:11)
042. Grande Sonate No. 12 in A-Flat Major Op. 26: II. Scherzo. Allegro molto (2:32)
043. Grande Sonate No. 12 in A-Flat Major Op. 26: III. Marcia funèbre sulla morte d'un eroe (7:27)
044. Grande Sonate No. 12 in A-Flat Major Op. 26: IV. Allegro (2:52)
045. Sonata No. 15 in D Major, Op. 28: I. Allegro (11:27)
046. Sonata No. 15 in D Major, Op. 28: II. Andante (8:41)
047. Sonata No. 15 in D Major, Op. 28: III. Scherzo. Allegro vivace (2:28)
048. Sonata No. 15 in D Major, Op. 28: IV. Rondo. Allegro ma non troppo (5:51)
049. Sonata No. 16 in G Major, Op. 31 No. 1: I. Allegro vivace (6:44)
050. Sonata No. 16 in G Major, Op. 31 No. 1: II. Adagio grazioso (14:06)
051. Sonata No. 16 in G Major, Op. 31 No. 1: III. Allegretto (7:16)
052. Sonata No. 17 in D Minor, Op. 31 No. 2: I. Largo - Allegro (10:57)
053. Sonata No. 17 in D Minor, Op. 31 No. 2: II. Adagio (8:33)
054. Sonata No. 17 in D Minor, Op. 31 No. 2: III. Allegretto (6:42)
055. Sonata No. 18 in E-Flat Major, Op. 31 No. 3: I. Allegro (8:38)
056. Sonata No. 18 in E-Flat Major, Op. 31 No. 3: II. Scherzo. Allegretto vivace (5:17)
057. Sonata No. 18 in E-Flat Major, Op. 31 No. 3: III. Menuetto. Moderato e grazioso (3:36)
058. Sonata No. 18 in E-Flat Major, Op. 31 No. 3: IV. Presto con fuoco (4:54)
059. Sonata quasi una fantasia No. 13 in E-Flat Major, Op. 27 No. 1: I. Andante - Allegro (5:49)
060. Sonata quasi una fantasia No. 13 in E-Flat Major, Op. 27 No. 1: II. Allegro molto e vivace (2:01)
061. Sonata quasi una fantasia No. 13 in E-Flat Major, Op. 27 No. 1: III. Adagio con espressione (3:32)
062. Sonata quasi una fantasia No. 13 in E-Flat Major, Op. 27 No. 1: IV. Allegro vivace - Presto (6:08)
063. Sonata quasi una fantasia No. 14 in C-Sharp Minor, Op. 27 No. 2: I. Adagio sostenuto (5:55)
064. Sonata quasi una fantasia No. 14 in C-Sharp Minor, Op. 27 No. 2: II. Allegretto (2:12)
065. Sonata quasi una fantasia No. 14 in C-Sharp Minor, Op. 27 No. 2: III. Presto agitato (7:38)
066. Sonata facile No. 19 in G Minor, Op. 49 No. 1: I. Andante (5:28)
067. Sonate facile No. 19 in G Minor, Op. 49 No. 1: II. Rondo. Allegro (3:33)
068. Sonate facile No. 20 in G Major, Op. 49 No. 2: I. Allegro, ma non troppo (5:00)
069. Sonate facile No. 20 in G Major, Op. 49 No. 2: II. Tempo di Menuetto (3:24)
070. Grande Sonate No. 21 in C Major, Op. 53: I. Allegro con brio (12:03)
071. Grande Sonate No. 21 in C Major, Op. 53: II. Introduzione. Adagio molto (5:14)
072. Grande Sonate No. 21 in C Major, Op. 53: Rondo. Allegretto moderato - Prestissimo (11:09)
073. Sonata No. 22 in F Major, Op. 54: I. In Tempo d'un Menuetto (6:29)
074. Sonata No. 22 in F Major, Op. 54: II. Allegretto - Più allegro (5:37)
075. Sonata No. 23 in F Minor, Op. 57: I. Allegro assai (11:10)
076. Sonata No. 23 in F Minor, Op. 57: II. Andante con moto (7:07)
077. Sonata No. 23 in F Minor, Op. 57: III. Allegro ma non troppo - Presto (8:30)
078. Sonata No. 24 in F-Sharp Major, Op. 78: I. Adagio cantabile - Allegro ma non troppo (7:38)
079. Sonata No. 24 in F-Sharp Major, Op. 78: II. Allegro vivace (2:57)
080. Sonatina No. 25 in G Major, Op. 79: I. Presto alla (5:23)
081. Sonatina No. 25 in G Major, Op. 79: II. Andante (3:24)
082. Sonatina No. 25 in G Major, Op. 79: III. Vivace (2:18)
083. Sonata No. 26 in E-Flat Major, Op. 81a: I. Das Lebewohl. Adagio - Allegro (7:46)
084. Sonata NO. 26 in E-Flat Major, Op. 81a: II. Abwesenheit. Andante espressivo (4:08)
085. Sonata No. 26 in E-Flat Major, Op. 81a: III. Das Wiedersehen. Vivacissimamente (6:02)
086. Sonata No. 27 in E Minor, Op. 90: I. Mit Lebhaftigkeit und durchaus mit Empfindung und Ausdruck (6:02)
087. Sonata No. 27 in E Minor, Op. 90: II. Nicht zu geschwind und sehr singbar vorgetragen (7:23)
088. Sonata No. 28 in A Major, Op. 101: I. Etwas lebhaft und mit der innigesten Empfindung. Allegretto, ma non troppo (5:07)
089. Sonata No. 28 in A Major, Op. 101: II. Lebhaft. Marchmäßig. Vivace alla marcia (6:43)
090. Sonata No. 28 in A Major, Op. 101: III. Langsam und sehnsuchtsvoll. Adagio, ma non troppo, non affetto (4:30)
091. Sonata No. 28 in A Major, Op. 101: IV. Geschwinde, doch nicht zu sher, und mit Entschlossenheit. Allegro (8:03)
092. Grande Sonate No. 29 in B-Flat Major, Op. 106: I. Allegro (11:14)
093. Grande Sonate No. 29 in B-Flat Major, Op. 106: II. Scherzo. Assai vivace (2:46)
094. Grande Sonate No. 29 in B-Flat Major, Op. 106: III. Adagio sostenuto. Appassionato e con molto sentimento (25:40)
095. Grande Sonate No. 29 in B-Flat Major, Op. 106: IV. Largo - Allegro risoluto (14:47)
096. Sonata No. 30 in E Major, Op. 109: I. Vivace, ma non troppo - Adagio espressivo (4:03)
097. Sonata No. 30 in E Major, Op. 109: II. Presstissimo (2:34)
098. Sonata No. 30 in E Major, Op. 109: III. Gesangvoll mit innigster Empfindung. Andante molto cantabile ed espressivo (15:12)
099. Sonata No. 31 in A-Flat Major, Op. 110: I. Moderato cantabile molto espressivo (7:36)
100. Sonata No. 31 in A-Flat Major, Op. 110: II. Allegro molto (2:08)
101. Sonata No. 31 in A-Flat Major, Op. 110: III. Adagio ma non troppo - Arioso dolente - Fuga. Allegro ma non troppo (13:35)
102. Sonata No. 32 in C Minor, Op. 111: I. Maestoso - Allegro con brio ed appasionato (10:16)
103. Sonata No. 32 in C Minor, Op. 111: II Arieta. Adagio molto semplice e cantabile (21:34)

foobar2000 1.3.7 / Dynamic Range Meter 1.1.1
log date: 2020-02-12 00:05:14

––––––––––––––––––––––––––––––––––––––––
Analyzed: Konstantin Lifschitz / Beethoven: 32 Sonatas
––––––––––––––––––––––––––––––––––––––––

DR Peak RMS Duration Track
––––––––––––––––––––––––––––––––––––––––
DR15 -1.31 dB -20.66 dB 7:04 001-Sonata No. 1 in F Minor, Op. 2 No. 1: I. Allegro
DR14 -7.98 dB -27.26 dB 5:18 002-Sonata No. 1 in F Minor, Op. 2 No. 1: II. Adagio
DR12 -3.86 dB -20.78 dB 3:25 003-Sonata No. 1 in F Minor, Op. 2 No. 1: III. Menuetto. Allegretto
DR12 -0.53 dB -17.66 dB 6:53 004-Sonata No. 1 in F Minor, Op. 2 No. 1: IV. Prestissimo
DR14 -1.91 dB -20.10 dB 11:17 005-Sonata No. 2 in A Major, Op. 2 No. 2: I. Allegro vivace
DR17 -2.42 dB -25.87 dB 9:26 006-Sonata No. 2 in A Major, Op. 2 No. 2: II. Largo appassionato
DR13 -2.19 dB -21.03 dB 3:43 007-Sonata No. 2 in A Major, Op. 2 No. 2: III. Scherzo. Allegretto
DR13 -1.51 dB -20.48 dB 7:15 008-Sonata No. 2 in A Major, Op. 2 No. 2: IV. Rondo. Grazioso
DR13 -0.57 dB -18.55 dB 10:50 009-Sonata No. 3 in C Major, Op. 2 No. 3: I. Allegro con brio
DR17 -1.38 dB -25.69 dB 9:25 010-Sonata No. 3 in C Major, Op. 2 No. 3: II: Adagio
DR13 -0.80 dB -19.32 dB 3:10 011-Sonata No. 3 in C Major, Op. 2 No. 3: III. Scherzo. Allegro
DR14 -0.51 dB -19.77 dB 5:43 012-Sonata No. 3 in C Major, Op. 2 No. 3: IV. Allegro assai
DR14 -0.83 dB -20.65 dB 6:33 013-Sonata No. 5 in C Minor, Op. 10 No. 1: I. Allegro molto e con brio
DR16 -3.92 dB -26.81 dB 9:35 014-Sonata No. 5 in C Minor, Op. 10 No. 1: II. Adagio molto
DR14 -0.52 dB -21.44 dB 3:49 015-Allegretto (WoO 53)
DR14 -0.80 dB -19.60 dB 4:40 016-Sonata No. 5 in C Minor, Op. 10 No. 1: III. Finale. Prestissimo
DR14 -1.01 dB -20.63 dB 9:28 017-Sonata No. 6 in F Major, Op. 10 No. 2: I. Allegro
DR15 -1.92 dB -23.03 dB 4:07 018-Sonata No. 6 in F Major, Op. 10 No. 2: II .Allegretto
DR13 -2.89 dB -20.16 dB 4:04 019-Sonata No. 6 in F Major, Op. 10 No. 2: III. Presto
DR14 -0.52 dB -19.47 dB 7:14 020-Sonata No. 7 in D Major, Op. 10 No. 3: I. Presto
DR16 -0.52 dB -23.38 dB 11:01 021-Sonata No. 7 in D Major, Op. 10 No. 3: II. Largo e mesto
DR14 -2.22 dB -21.87 dB 2:50 022-Sonata No. 7 in D Major, Op. 10 No. 3: III. Menuetto. Allegro
DR14 -0.51 dB -21.09 dB 5:00 023-Sonata No. 7 in D Major, Op. 10 No. 3: IV. Rondo. Allegro
DR13 -0.50 dB -17.69 dB 7:35 024-Grande Sonate No. 4 in E-Flat Major, Op. 7: I. Allegro molto e con brio
DR17 -0.52 dB -25.56 dB 10:58 025-Grande Sonate No. 4 in E-Flat Major, Op. 7: II. Largo con gran espressione
DR14 -0.82 dB -20.39 dB 5:08 026-Grande Sonate No. 4 in E-Flat Major, Op. 7: III. Allegro
DR13 -1.44 dB -19.43 dB 7:44 027-Grande Sonate No. 4 in E-Flat Major, Op. 7: IV. Rondo. Poco allegretto e grazioso
DR14 -0.50 dB -19.31 dB 9:37 028-Grande Sonate No. 8 in C Minor, Op. 13 "Pathétique": I. Grave - Allegro di molto e con brio
DR16 -2.14 dB -25.24 dB 5:10 029-Grande Sonate No. 8 in C Minor, Op. 13 "Pathétique": II. Adagio cantabile
DR13 -0.70 dB -19.79 dB 5:05 030-Grande Sonate No. 8 in C Minor, Op. 13 "Pathétique": III. Rondo. Allegro
DR16 -0.51 dB -21.87 dB 7:16 031-Sonata No. 9 in E Major, Op. 14 No. 1: I. Allegro
DR14 -5.26 dB -24.54 dB 3:42 032-Sonata No. 9 in E Major, Op. 14 No. 1: II. Allegretto
DR12 -2.01 dB -20.09 dB 3:32 033-Sonata No. 9 in E Major, Op. 14 No. 1: III. Rondo. Allegro comodo
DR14 -3.28 dB -21.67 dB 7:15 034-Sonata No. 10 in G Major, Op. 14 No. 2: I. Allegro
DR14 -1.88 dB -24.65 dB 5:26 035-Sonata No. 10 in G Major, Op. 14 No. 2: II. Andante
DR15 -2.38 dB -21.80 dB 3:36 036-Sonata No. 10 in G Major, Op. 14 No. 2: III. Scherzo. Allegro assai
DR14 -1.96 dB -19.82 dB 7:55 037-Grande Sonate No. 11 in B-Flat Major, Op. 22: I: Allegro con brio
DR16 -5.90 dB -26.38 dB 9:09 038-Grande Sonate No. 11 in B-Flat Major, Op. 22: II. Adagio con molto espressione
DR14 -1.03 dB -20.30 dB 3:29 039-Grande Sonate No. 11 in B-Flat Major, Op. 22: III. Minuetto
DR13 -1.90 dB -19.25 dB 6:28 040-Grande Sonate No. 11 in B-Flat Major, Op. 22: IV. Rondo. Allegretto
DR13 -3.93 dB -22.78 dB 8:11 041-Grande Sonate No. 12 in A-Flat Major, Op. 26: I. Andante con variazioni
DR14 -1.62 dB -19.95 dB 2:32 042-Grande Sonate No. 12 in A-Flat Major Op. 26: II. Scherzo. Allegro molto
DR15 -0.51 dB -20.04 dB 7:27 043-Grande Sonate No. 12 in A-Flat Major Op. 26: III. Marcia funèbre sulla morte d'un eroe
DR12 -1.01 dB -18.21 dB 2:52 044-Grande Sonate No. 12 in A-Flat Major Op. 26: IV. Allegro
DR15 -0.51 dB -20.87 dB 11:27 045-Sonata No. 15 in D Major, Op. 28: I. Allegro
DR15 -1.81 dB -23.73 dB 8:41 046-Sonata No. 15 in D Major, Op. 28: II. Andante
DR15 -0.70 dB -20.35 dB 2:28 047-Sonata No. 15 in D Major, Op. 28: III. Scherzo. Allegro vivace
DR13 -0.52 dB -18.72 dB 5:51 048-Sonata No. 15 in D Major, Op. 28: IV. Rondo. Allegro ma non troppo
DR14 -0.73 dB -19.04 dB 6:44 049-Sonata No. 16 in G Major, Op. 31 No. 1: I. Allegro vivace
DR16 -2.53 dB -24.85 dB 14:06 050-Sonata No. 16 in G Major, Op. 31 No. 1: II. Adagio grazioso
DR14 -1.34 dB -20.57 dB 7:16 051-Sonata No. 16 in G Major, Op. 31 No. 1: III. Allegretto
DR13 -0.51 dB -19.63 dB 10:57 052-Sonata No. 17 in D Minor, Op. 31 No. 2: I. Largo - Allegro
DR16 -4.48 dB -25.55 dB 8:33 053-Sonata No. 17 in D Minor, Op. 31 No. 2: II. Adagio
DR12 -2.14 dB -17.96 dB 6:42 054-Sonata No. 17 in D Minor, Op. 31 No. 2: III. Allegretto
DR15 -1.45 dB -21.81 dB 8:38 055-Sonata No. 18 in E-Flat Major, Op. 31 No. 3: I. Allegro
DR17 -0.98 dB -23.22 dB 5:17 056-Sonata No. 18 in E-Flat Major, Op. 31 No. 3: II. Scherzo. Allegretto vivace
DR16 -1.60 dB -23.49 dB 3:36 057-Sonata No. 18 in E-Flat Major, Op. 31 No. 3: III. Menuetto. Moderato e grazioso
DR13 -0.50 dB -17.94 dB 4:54 058-Sonata No. 18 in E-Flat Major, Op. 31 No. 3: IV. Presto con fuoco
DR15 -1.50 dB -24.33 dB 5:49 059-Sonata quasi una fantasia No. 13 in E-Flat Major, Op. 27 No. 1: I. Andante - Allegro
DR12 -0.52 dB -19.01 dB 2:01 060-Sonata quasi una fantasia No. 13 in E-Flat Major, Op. 27 No. 1: II. Allegro molto e vivace
DR14 -7.71 dB -27.53 dB 3:32 061-Sonata quasi una fantasia No. 13 in E-Flat Major, Op. 27 No. 1: III. Adagio con espressione
DR14 -0.76 dB -19.97 dB 6:08 062-Sonata quasi una fantasia No. 13 in E-Flat Major, Op. 27 No. 1: IV. Allegro vivace - Presto
DR14 -8.89 dB -27.97 dB 5:55 063-Sonata quasi una fantasia No. 14 in C-Sharp Minor, Op. 27 No. 2: I. Adagio sostenuto
DR15 -4.08 dB -23.84 dB 2:12 064-Sonata quasi una fantasia No. 14 in C-Sharp Minor, Op. 27 No. 2: II. Allegretto
DR13 -0.50 dB -17.15 dB 7:38 065-Sonata quasi una fantasia No. 14 in C-Sharp Minor, Op. 27 No. 2: III. Presto agitato
DR15 -4.72 dB -25.13 dB 5:28 066-Sonata facile No. 19 in G Minor, Op. 49 No. 1: I. Andante
DR15 -1.97 dB -21.31 dB 3:33 067-Sonate facile No. 19 in G Minor, Op. 49 No. 1: II. Rondo. Allegro
DR15 -3.25 dB -21.64 dB 5:00 068-Sonate facile No. 20 in G Major, Op. 49 No. 2: I. Allegro, ma non troppo
DR13 -6.50 dB -23.50 dB 3:24 069-Sonate facile No. 20 in G Major, Op. 49 No. 2: II. Tempo di Menuetto
DR12 -0.90 dB -19.22 dB 12:03 070-Grande Sonate No. 21 in C Major, Op. 53: I. Allegro con brio
DR16 -5.60 dB -30.00 dB 5:14 071-Grande Sonate No. 21 in C Major, Op. 53: II. Introduzione. Adagio molto
DR13 -0.50 dB -18.00 dB 11:09 072-Grande Sonate No. 21 in C Major, Op. 53: Rondo. Allegretto moderato - Prestissimo
DR15 -0.51 dB -22.04 dB 6:29 073-Sonata No. 22 in F Major, Op. 54: I. In Tempo d'un Menuetto
DR12 -1.37 dB -18.96 dB 5:37 074-Sonata No. 22 in F Major, Op. 54: II. Allegretto - Più allegro
DR13 -0.50 dB -18.44 dB 11:10 075-Sonata No. 23 in F Minor, Op. 57: I. Allegro assai
DR15 -2.04 dB -23.48 dB 7:07 076-Sonata No. 23 in F Minor, Op. 57: II. Andante con moto
DR13 -0.50 dB -17.16 dB 8:30 077-Sonata No. 23 in F Minor, Op. 57: III. Allegro ma non troppo - Presto
DR14 -0.84 dB -20.17 dB 7:38 078-Sonata No. 24 in F-Sharp Major, Op. 78: I. Adagio cantabile - Allegro ma non troppo
DR13 -0.51 dB -18.54 dB 2:57 079-Sonata No. 24 in F-Sharp Major, Op. 78: II. Allegro vivace
DR14 -1.55 dB -19.12 dB 5:23 080-Sonatina No. 25 in G Major, Op. 79: I. Presto alla
DR14 -7.74 dB -27.15 dB 3:24 081-Sonatina No. 25 in G Major, Op. 79: II. Andante
DR13 -2.59 dB -20.85 dB 2:18 082-Sonatina No. 25 in G Major, Op. 79: III. Vivace
DR15 -0.66 dB -21.44 dB 7:46 083-Sonata No. 26 in E-Flat Major, Op. 81a: I. Das Lebewohl. Adagio - Allegro
DR16 -2.30 dB -25.14 dB 4:08 084-Sonata NO. 26 in E-Flat Major, Op. 81a: II. Abwesenheit. Andante espressivo
DR12 -1.22 dB -17.53 dB 6:02 085-Sonata No. 26 in E-Flat Major, Op. 81a: III. Das Wiedersehen. Vivacissimamente
DR15 -0.52 dB -21.46 dB 6:02 086-Sonata No. 27 in E Minor, Op. 90: I. Mit Lebhaftigkeit und durchaus mit Empfindung und Ausdruck
DR15 -1.77 dB -21.68 dB 7:23 087-Sonata No. 27 in E Minor, Op. 90: II. Nicht zu geschwind und sehr singbar vorgetragen
DR17 -0.52 dB -24.70 dB 5:07 088-Sonata No. 28 in A Major, Op. 101: I. Etwas lebhaft und mit der innigesten Empfindung. Allegretto, ma non troppo
DR15 -0.51 dB -20.01 dB 6:43 089-Sonata No. 28 in A Major, Op. 101: II. Lebhaft. Marchmäßig. Vivace alla marcia
DR18 -1.25 dB -28.52 dB 4:30 090-Sonata No. 28 in A Major, Op. 101: III. Langsam und sehnsuchtsvoll. Adagio, ma non troppo, non affetto
DR14 -0.50 dB -19.12 dB 8:03 091-Sonata No. 28 in A Major, Op. 101: IV. Geschwinde, doch nicht zu sher, und mit Entschlossenheit. Allegro
DR14 -0.50 dB -18.19 dB 11:14 092-Grande Sonate No. 29 in B-Flat Major, Op. 106: I. Allegro
DR13 -0.50 dB -19.71 dB 2:46 093-Grande Sonate No. 29 in B-Flat Major, Op. 106: II. Scherzo. Assai vivace
DR17 -2.98 dB -25.47 dB 25:40 094-Grande Sonate No. 29 in B-Flat Major, Op. 106: III. Adagio sostenuto. Appassionato e con molto sentimento
DR13 -0.52 dB -18.22 dB 14:47 095-Grande Sonate No. 29 in B-Flat Major, Op. 106: IV. Largo - Allegro risoluto
DR14 -1.77 dB -21.53 dB 4:03 096-Sonata No. 30 in E Major, Op. 109: I. Vivace, ma non troppo - Adagio espressivo
DR13 -0.50 dB -18.01 dB 2:34 097-Sonata No. 30 in E Major, Op. 109: II. Presstissimo
DR13 -1.33 dB -21.33 dB 15:12 098-Sonata No. 30 in E Major, Op. 109: III. Gesangvoll mit innigster Empfindung. Andante molto cantabile ed espressivo
DR14 -2.84 dB -22.69 dB 7:36 099-Sonata No. 31 in A-Flat Major, Op. 110: I. Moderato cantabile molto espressivo
DR13 -0.51 dB -18.45 dB 2:08 100-Sonata No. 31 in A-Flat Major, Op. 110: II. Allegro molto
DR14 -0.50 dB -21.45 dB 13:35 101-Sonata No. 31 in A-Flat Major, Op. 110: III. Adagio ma non troppo - Arioso dolente - Fuga. Allegro ma non troppo
DR13 -0.70 dB -19.69 dB 10:16 102-Sonata No. 32 in C Minor, Op. 111: I. Maestoso - Allegro con brio ed appasionato
DR15 -1.46 dB -22.11 dB 21:34 103-Sonata No. 32 in C Minor, Op. 111: II Arieta. Adagio molto semplice e cantabile
––––––––––––––––––––––––––––––––––––––––

Number of tracks: 103
Official DR value: DR14

Samplerate: 48000 Hz
Channels: 2
Bits per sample: 24
Bitrate: 1256 kbps
Codec: FLAC
================================================================================


Thanks to the Original customer.