Kris Kristofferson - Natural Act (1978/2021) [Official Digital Download 24/96]

Posted By: pyatak
Kris Kristofferson - Natural Act (1978/2021) [Official Digital Download 24/96]

Kris Kristofferson - Natural Act (1978/2021) [Official Digital Download 24/96]
FLAC (tracks) 24-bit/96 kHz | Front Cover | Time - 36:36 minutes | 752 MB
Country | Label: A&M, Official Digital Download

Natural Act is the third and final duet album by Kris Kristofferson and Rita Coolidge, released in 1978 on A&M Records. The couple would divorce the following year. The album was released while Coolidge's career was at a peak; her recent albums Anytime…Anywhere and Love Me Again had seen much commercial success. Natural Act is Kristofferson's only album to chart in the United Kingdom.

TRACKLIST

1. Kris Kristofferson - Blue As I Do
2. Kris Kristofferson - Not Everyone Knows
3. Kris Kristofferson - I Fought The Law
4. Kris Kristofferson - Number One
5. Kris Kristofferson - You're Going To Love Yourself
6. Kris Kristofferson - Loving You Was Easier
7. Kris Kristofferson - Back In My Baby's Arms
8. Kris Kristofferson - Please Don't Tell Me How The Story Ends
9. Kris Kristofferson - Hoola Hoop
10. Kris Kristofferson - Love Don't Live Here Anymore
11. Kris Kristofferson - Silver Mantis

foobar2000 1.6.2 / Dynamic Range Meter 1.1.1
log date: 2021-05-24 07:40:03

––––––––––––––––––––––––––––––––––––––––
Analyzed: Kris Kristofferson / Natural Act
––––––––––––––––––––––––––––––––––––––––

DR Peak RMS Duration Track
––––––––––––––––––––––––––––––––––––––––
DR9 -0.30 dB -11.01 dB 2:53 01-Blue As I Do
DR11 -0.30 dB -15.17 dB 3:08 02-Not Everyone Knows
DR10 -0.30 dB -11.46 dB 2:26 03-I Fought The Law
DR10 -0.30 dB -12.82 dB 2:35 04-Number One
DR9 -0.30 dB -12.72 dB 2:54 05-You're Going To Love Yourself
DR9 -0.30 dB -12.22 dB 4:10 06-Loving You Was Easier
DR10 -0.30 dB -12.52 dB 3:00 07-Back In My Baby's Arms
DR10 -0.30 dB -13.31 dB 2:24 08-Please Don't Tell Me How The Story Ends
DR11 -0.30 dB -13.86 dB 3:54 09-Hoola Hoop
DR12 -0.30 dB -14.08 dB 3:47 10-Love Don't Live Here Anymore
DR11 -0.30 dB -14.43 dB 5:33 11-Silver Mantis
––––––––––––––––––––––––––––––––––––––––

Number of tracks: 11
Official DR value: DR10

Samplerate: 96000 Hz
Channels: 2
Bits per sample: 24
Bitrate: 2864 kbps
Codec: FLAC
================================================================================



Thanks to the Original customer.