Kylie Morgan - Love, Kylie (2021) [Official Digital Download 24/96]

Posted By: pyatak
Kylie Morgan - Love, Kylie (2021) [Official Digital Download 24/96]

Kylie Morgan - Love, Kylie (2021) [Official Digital Download 24/96]
FLAC (tracks) 24-bit/96 kHz | Front Cover | Time - 17:56 minutes | 378 MB
Country | Label: EMI Nashville, Official Digital Download

Kylie Morgan is ready to pour her heart out.

Since moving to Nashville at 19, working as a songwriter and putting out single after single of her own, the country singer has been dreaming of the day when she would release her first body of work. Now, that day has finally come.

"I've been dreaming about this EP for a decade," Morgan tells PEOPLE exclusively. "I've had forever to think about what I want to say, how I want to say it and how I want the songs to coincide, and the idea that it's finally coming together is surreal."

TRACKLIST

1. Kylie Morgan - Shoulda
2. Kylie Morgan - I Only Date Cowboys
3. Kylie Morgan - Outdoor Voices
4. Kylie Morgan - Break Things
5. Kylie Morgan - Cheating On You
6. Kylie Morgan - Mad I Need You

foobar2000 1.6.2 / Dynamic Range Meter 1.1.1
log date: 2021-06-14 11:10:37

––––––––––––––––––––––––––––––––––––––––
Analyzed: Kylie Morgan / Love, Kylie
––––––––––––––––––––––––––––––––––––––––

DR Peak RMS Duration Track
––––––––––––––––––––––––––––––––––––––––
DR4 -0.30 dB -6.13 dB 2:46 01-Shoulda
DR5 -0.30 dB -6.39 dB 2:57 02-I Only Date Cowboys
DR6 -0.30 dB -9.66 dB 3:00 03-Outdoor Voices
DR5 -0.30 dB -6.80 dB 2:53 04-Break Things
DR6 -0.28 dB -8.63 dB 3:04 05-Cheating On You
DR5 -0.30 dB -8.46 dB 3:20 06-Mad I Need You
––––––––––––––––––––––––––––––––––––––––

Number of tracks: 6
Official DR value: DR5

Samplerate: 96000 Hz
Channels: 2
Bits per sample: 24
Bitrate: 2831 kbps
Codec: FLAC
================================================================================



Thanks to the Original customer.