Tags
Language
Tags

LSO / Bernard Haitink - Brahms: Serenade No.2, Symphony No.3 (2004) [SACD ISO+HiRes FLAC]

Posted By:
LSO / Bernard Haitink - Brahms: Serenade No.2, Symphony No.3 (2004) [SACD ISO+HiRes FLAC]

London Symphony Orchestra / Bernard Haitink - Brahms: Serenade No.2, Symphony No.3 (2004)
PS3 Rip | SACD ISO | DST64 2.0 & DST64 4.0 >1-bit/2.8224 MHz | Front Cover | 3.21GB + 5% Recovery
FLAC Image+CUE 2.0 24bit/88.2 kHz | Front Cover | 1.1GB + 5% Recovery

The 1st & final movements of Brahms’s 3rd Symphony contain some of the most dramatic music he was to compose, yet both end serenely & enclose 2 beautiful inner movements. The equally exquisite Serenade No 2, unusually scored for wind instruments, violas, cellos & double basses, was 1 of his own personal favourites & both receive superb performances under Bernard Haitink in the 3rd part of his internationally acclaimed LSO Live Brahms cycle.
Track List
01. Serenade No 2, Allegro moderato
02. Serenade No 2, Scherzo: Vivace
03. Serenade No 2, Adagio non troppo
04. Serenade No 2, Quasi menuetto
05. Serenade No 2, Rondo: Allegro
06. Symphony No 3, Allegro con brio
07. Symphony No 3, Andante
08. Symphony No 3, Poco allegretto
09. Symphony No 3, Allegro

musicians
Bernard Haitink
London Symphony Orchestra

Recording:

Serenade No 2 recorded at the Barbican, London on 21 & 22 May 2003
Symphony No 3 recorded at the Barbican, London on 16 & 17 June 2004
James Mallinson producer
Jonathan Stokes for Classic Sound Ltd, balance engineer


17170576[0x1060090]: SACD-Ripper Version 0.36
17170576[0x1060090]: config: 00 00 00 0c 00 00 00 00 ff 41 00 04 00 00 00 00
17170576[0x1060090]: config: 00 00 00 00 00 00 00 00 00 00 00 00 00 00 00 00
17170576[0x1060090]: config: 00 00 00 00 00 00 00 00 00 00 00 00 00 00 00 00
17170576[0x1060090]: config: 00 00 00 00 00 00 00 00 00 00 00 00 00 00 00 00
17170576[0x1060090]: device_info: 75 6e 6e 61 6d 65 5c 10 80 00 00 00 00 53 a0 00
17170576[0x1060090]: device_info: 80 00 00 00 10 14 1e 70 80 00 00 00 00 5b f0 00
17170576[0x1060090]: device_info: 00 00 00 00 00 00 00 00 00 00 00 00 00 10 4b e9
17170576[0x1060090]: device_info: 00 00 08 00 00 00 00 01 00 01 01 00 00 00 00 01
17170576[0x1060090]: disc inserted..
17170576[0x1060090]: config: 00 00 00 0c 00 00 00 10 ff 41 01 04 00 00 00 00
17170576[0x1060090]: config: 00 00 00 00 00 00 00 00 00 00 00 00 00 00 00 00
17170576[0x1060090]: config: 00 00 00 00 00 00 00 00 00 00 00 00 00 00 00 00
17170576[0x1060090]: config: 00 00 00 00 00 00 00 00 00 00 00 00 00 00 00 00
17170576[0x1060090]: device_info: 75 6e 6e 61 6d 65 5c 10 80 00 00 00 00 53 a0 00
17170576[0x1060090]: device_info: 80 00 00 00 10 14 1e 70 80 00 00 00 00 5b f0 00
17170576[0x1060090]: device_info: 00 00 00 00 00 00 00 00 00 00 00 00 00 19 b1 18
17170576[0x1060090]: device_info: 00 00 08 00 00 00 00 01 00 01 01 00 00 00 00 01
17170576[0x1060090]: Album Title: BRAHMS Serenade No 2 / Symphony No 3
17170576[0x1060090]: Album Artist: Bernard Haitink, London Symphony Orchestra
17170576[0x1060090]: Disc Version: 01.20
17170576[0x1060090]: config: 00 00 00 0c 00 00 00 10 ff 41 01 04 00 00 00 00
17170576[0x1060090]: config: 00 00 00 00 00 00 00 00 00 00 00 00 00 00 00 00
17170576[0x1060090]: config: 00 00 00 00 00 00 00 00 00 00 00 00 00 00 00 00
17170576[0x1060090]: config: 00 00 00 00 00 00 00 00 00 00 00 00 00 00 00 00
17170576[0x1060090]: device_info: 75 6e 6e 61 6d 65 5c 10 80 00 00 00 00 53 a0 00
17170576[0x1060090]: device_info: 80 00 00 00 10 14 1e 70 80 00 00 00 00 5b f0 00
17170576[0x1060090]: device_info: 00 00 00 00 00 00 00 00 00 00 00 00 00 19 b1 18
17170576[0x1060090]: device_info: 00 00 08 00 00 00 00 01 00 01 01 00 00 00 00 01
17170576[0x1060090]: succeeded. raw_spu number is 0
17170576[0x1060090]: succeeded. entry d0
17170576[0x1060090]: Establishing the interrupt tag on the interrupt PPU thread.
17170576[0x1060090]: ioctl_report_key1[45023901] 0
17170576[0x1060090]: sac_exec_generate_key 0 c9 0
17170576[0x1060090]: ioctl_send_key[2] c9 0
17170576[0x1060090]: ioctl_report_key[2] c8 0
17170576[0x1060090]: sac_exec_validate_key_1[0]
17170576[0x1060090]: sac_exec_generate_key_2[ae] 0
17170576[0x1060090]: ioctl_send_key[3] ae 0
17170576[0x1060090]: ioctl_report_key[3] b0 0
17170576[0x1060090]: sac_exec_validate_key_2[0]
17170576[0x1060090]: ioctl_report_key[4] 30 0
17170576[0x1060090]: sac_exec_validate_key_3[0]
17170576[0x1060090]: ioctl_report_finish [0xff] 0
17170576[0x1060090]: Queuing raw: /dev_usb003/Bernard Haitink, London Symphony Orchestra - BRAHMS Serenade No 2 Symphony No 3.iso, start_lsn: 0, length_lsn: 1683736


––––––––––––––––––––––––––––––––––––––––
Analyzed: Bernard Haitink, London Symphony Orchestra / BRAHMS Serenade No 2 / Symphony No 3
––––––––––––––––––––––––––––––––––––––––

DR Peak RMS Duration Track
––––––––––––––––––––––––––––––––––––––––
DR13 -11.20 dB -30.61 dB 8:11 01-BRAHMS Serenade No 2, Allegro moderato
DR14 -9.55 dB -29.11 dB 2:45 02-BRAHMS Serenade No 2, Scherzo: Vivace
DR13 -12.13 dB -31.55 dB 7:15 03-BRAHMS Serenade No 2, Adagio non troppo
DR13 -14.68 dB -34.07 dB 5:15 04-BRAHMS Serenade No 2, Quasi menuetto
DR14 -7.30 dB -28.07 dB 5:38 05-BRAHMS Serenade No 2, Rondo: Allegro
DR14 -7.41 dB -27.15 dB 14:25 06-BRAHMS Symphony No 3, Allegro con brio
DR13 -12.42 dB -32.32 dB 8:53 07-BRAHMS Symphony No 3, Andante
DR14 -15.47 dB -35.91 dB 6:46 08-BRAHMS Symphony No 3, Poco allegretto
DR16 -3.86 dB -25.91 dB 9:26 09-BRAHMS Symphony No 3, Allegro
––––––––––––––––––––––––––––––––––––––––

Number of tracks: 9
Official DR value: DR14

Samplerate: 2822400 Hz / PCM Samplerate: 88200 Hz
Channels: 2
Bits per sample: 1
Bitrate: 5645 kbps
Codec: DST64
================================================================================


–––––––––––––––––––––––––––––––––––––––––––––-
Analyzed: Bernard Haitink, LSO / BRAHMS Serenade No 2 / Symphony No 3
–––––––––––––––––––––––––––––––––––––––––––––-
DR Peak RMS Duration Track
–––––––––––––––––––––––––––––––––––––––––––––-
DR13 -7.34 dB -26.78 dB 8:13 01-BRAHMS Serenade No 2, Allegro moderato
DR14 -5.69 dB -25.33 dB 2:47 02-BRAHMS Serenade No 2, Scherzo: Vivace
DR13 -8.27 dB -27.76 dB 7:20 03-BRAHMS Serenade No 2, Adagio non troppo
DR13 -10.82 dB -30.25 dB 5:17 04-BRAHMS Serenade No 2, Quasi menuetto
DR14 -3.44 dB -24.33 dB 5:47 05-BRAHMS Serenade No 2, Rondo: Allegro
DR14 -3.54 dB -23.32 dB 14:32 06-BRAHMS Symphony No 3, Allegro con brio
DR13 -8.58 dB -28.51 dB 8:58 07-BRAHMS Symphony No 3, Andante
DR14 -11.62 dB -32.07 dB 6:48 08-BRAHMS Symphony No 3, Poco allegretto
DR16 -0.01 dB -22.05 dB 9:26 09-BRAHMS Symphony No 3, Allegro
–––––––––––––––––––––––––––––––––––––––––––––-
Number of tracks: 9
Official DR value: DR14

Samplerate: 88200 Hz
Channels: 2
Bits per sample: 24
Bitrate: 2283 kbps
Codec: FLAC
========================================================

Gain for FLAC Image = 3.86dB

Thanks to the original ripper