Tags
Language
Tags

Lake Of Tears - Ominous (2021) [Vinil Rip, 24/192]

Posted By:
Lake Of Tears - Ominous (2021) [Vinil Rip, 24/192]

Lake Of Tears - Ominous (2021) [Vinil Rip, 24/192]
Vinil Rip, FLAC (tracks) 24-bit/192 kHz | Front Cover + Scans | Time - 41:00 minutes | 3,13 GB
Gothic Rock, Gothic Metal | Label: AFM Records

Ten years the fans awaited a new album from the gothic metal band Lake Of Tears, a band that has been streamed millions of times. The new album "Onimous" envelops the listener with comforting loneliness in the usual gruesome-dark manner. The new release of LAKE OF TEARS is the perfect soundtrack for short, grey days and long, cold, dark nights. For fans of: Paradise Lost, Tiamat, Amorphis, My Dying Bride, Moonspell.

TRACKLIST

1. Lake Of Tears - At The Destination
2. Lake Of Tears - In Wait And In Worries
3. Lake Of Tears - Lost In A Moment
4. Lake Of Tears - Ominous One
5. Lake Of Tears - Ominous Too
6. Lake Of Tears - One Without Dreams
7. Lake Of Tears - The End Of This World
8. Lake Of Tears - Cosmic Sailor

Correction by Patchez: conversion via WV cue (foobar 2000) to level 1 FLAC and removal of advertisement tags
===================
Done by: Ventor76
State of vinyl: NM
Audio player: Pioneer PL-50L
Needle:Denon DL-301
Pre amp: Onkyo Integra P-306
AMP: Tascam US-366
Digitizer program: Sound Forge
Correction: Removal of several clicks[\HIDE]

foobar2000 1.6.2 / Dynamic Range Meter 1.1.1
log date: 2021-02-21 18:51:54

––––––––––––––––––––––––––––––––––––––––
Analyzed: Lake Of Tears / Ominous [AFM 496]
––––––––––––––––––––––––––––––––––––––––

DR Peak RMS Duration Track
––––––––––––––––––––––––––––––––––––––––
DR11 0.00 dB -14.77 dB 4:14 01-At The Destination
DR13 -0.33 dB -18.43 dB 6:45 02-In Wait And In Worries
DR12 0.00 dB -14.62 dB 5:59 03-Lost In A Moment
DR12 -0.86 dB -14.87 dB 3:02 04-Ominous One
DR11 -1.98 dB -17.07 dB 4:29 05-Ominous Too
DR11 -2.31 dB -16.67 dB 5:13 06-One Without Dreams
DR11 0.00 dB -13.56 dB 3:59 07-The End Of This World
DR12 -0.17 dB -16.43 dB 7:18 08-Cosmic Sailor
––––––––––––––––––––––––––––––––––––––––

Number of tracks: 8
Official DR value: DR12

Samplerate: 192000 Hz
Channels: 2
Bits per sample: 24
Bitrate: 5561 kbps
Codec: FLAC
================================================================================



Thanks to the Original customer.