Laura Veirs - The Lookout (2018) [Official Digital Download]

Posted By: Pisulik
Laura Veirs - The Lookout (2018) [Official Digital Download]

Laura Veirs - The Lookout (2018)
FLAC (tracks) 24-bit/44.1 kHz | Time - 38:31 minutes | 414 MB
Studio Master, Official Digital Download | Artwork: Front cover

A prolific songwriter for nearly twenty years, Laura Veirs proves the depth of her musical skill on her tenth solo album, The Lookout. Here is a batch of inimitable, churning, exquisite folk-pop songs; a concept album about the fragility of precious things. Produced by Grammy-nominated Tucker Martine, Veirs' longtime collaborator, The Lookout is a soundtrack for turbulent times, full of allusions to protectors: the camper stoking a watch fire, a mother tending her children, a sailor in a crows nest and a lightning rod channelling energy.

Tracklist:

01. Margaret Sands
02. Everybody Needs You
03. Seven Falls
04. Mountains of the Moon
05. Watch Fire
06. Heavy Petals
07. The Lookout
08. The Meadow
09. The Canyon
10. Lightning Rod
11. When It Grows Darkest
12. Zozobra

foobar2000 1.3.7 / Dynamic Range Meter 1.1.1
log date: 2018-04-13 04:03:40

––––––––––––––––––––––––––––––––––––––––
Analyzed: Laura Veirs / The Lookout
––––––––––––––––––––––––––––––––––––––––

DR Peak RMS Duration Track
––––––––––––––––––––––––––––––––––––––––
DR8 -0.70 dB -10.76 dB 2:58 01-Margaret Sands
DR6 -0.97 dB -8.85 dB 2:55 02-Everybody Needs You
DR7 -0.68 dB -8.73 dB 4:05 03-Seven Falls
DR8 -0.70 dB -11.87 dB 4:16 04-Mountains of the Moon
DR7 -0.70 dB -9.72 dB 2:36 05-Watch Fire
DR7 -1.33 dB -10.78 dB 2:39 06-Heavy Petals
DR7 -0.69 dB -9.41 dB 2:04 07-The Lookout
DR8 -1.82 dB -11.98 dB 2:42 08-The Meadow
DR7 -0.99 dB -10.79 dB 3:42 09-The Canyon
DR6 -0.70 dB -8.45 dB 3:20 10-Lightning Rod
DR6 -0.69 dB -9.07 dB 4:31 11-When It Grows Darkest
DR9 -1.04 dB -11.89 dB 2:45 12-Zozobra
––––––––––––––––––––––––––––––––––––––––

Number of tracks: 12
Official DR value: DR7

Samplerate: 44100 Hz
Channels: 2
Bits per sample: 24
Bitrate: 1431 kbps
Codec: FLAC
================================================================================


All thanks go to the original releaser