Tags
Language
Tags

Leopold Stokowski, Symphony Of The Air And Chorus - The Sound Of Stokowski And Wagner (1961/2022)

Posted By: v3122
Leopold Stokowski, Symphony Of The Air And Chorus - The Sound Of Stokowski And Wagner (1961/2022)

Leopold Stokowski, Symphony Of The Air And Chorus - The Sound Of Stokowski And Wagner (1961/2022)
FLAC (Tracks) 24-bit/96 kHz | Official Digital Download | Time: 00:48:39
Classical | Remastered | RCA / Archipel | Artwork Included | ~ 948 Mb

~ Wagner: Orchestral Works (The Sound Of Stokowski And Wagner):
Tannhäuser, Tristan und Isolde, Das Rheingold, Die Walküre
Leopold Stokowski, Symphony of the And Chorus ~

Leopold Stokowski, Symphony Of The Air And Chorus - The Sound Of Stokowski And Wagner (1961/2022):

Tracklist:

01. Tannhäuser, WWV 70: Overture-Venusberg Music
Cello – Harvey Shapiro
Chorus Master – Margaret Hillis
French Horn – Ralph Froelich
Viola – Arthur Granick
Violin – Marilyn Wright

02. Tristan und Isolde, WWV 90: Prelude to Act III
English Horn – Henry Schuman

03. Das Rheingold, WWV 86A: Entrance of the Gods into Valhalla
Contralto Vocals – Louise Parker
Soprano Vocals – Carlotta Ordassy, Martina Arroyo

04. Die Walküre, WWV 86B: Ride of the Valkyries
Contralto Vocals – Louise Parker
Mezzo-soprano Vocals – Betty Allen, Doris Okerson, Regina Sarfaty, Shirley Verrett
Soprano Vocals – Carlotta Ordassy, Doris Yarick, Martina Arroyo

foobar2000 1.3.13 / Замер динамического диапазона (DR) 1.1.1
Дата отчёта: 2022-07-03 21:58:46

––––––––––––––––––––––––––––––––––––––––
Анализ: Henry Schumann / Wagner: Orchestral Works (Remastered 2022) (1)
Martina Arroyo / Wagner: Orchestral Works (Remastered 2022) (2-3)
Symphony of the Air / Wagner: Orchestral Works (Remastered 2022) (4)
––––––––––––––––––––––––––––––––––––––––

DR Пики RMS Продолжительность трека
––––––––––––––––––––––––––––––––––––––––
DR12 -4.02 дБ -23.27 дБ 10:08 02-Prelude to Act III (Remastered 2022)
DR11 -1.73 дБ -18.89 дБ 7:58 03-Entrance of the Gods into Valhalla (Remastered 2022)
DR10 -1.70 дБ -14.59 дБ 5:41 04-Ride of the Valkyries (Remastered 2022)
DR11 -0.88 дБ -18.34 дБ 24:50 01-Overture - Venusberg Music (Remastered 2022)
––––––––––––––––––––––––––––––––––––––––

Количество треков: 4
Реальные значения DR: DR11

Частота: 96000 Гц
Каналов: 2
Разрядность: 24
Битрейт: 2642 кбит/с
Кодек: FLAC

All thanks go to the original releaser

Download Leopold Stokowski, Symphony Of The Air And Chorus - The Sound Of Stokowski And Wagner (1961/2022):