Liam Thomas - Cosmos (2019) [Official Digital Download]

Posted By: Pisulik
Liam Thomas - Cosmos (2019) [Official Digital Download]

Liam Thomas - Cosmos (2019)
FLAC (tracks) 24-bit/44.1 kHz | Time - 33:10 minutes | 330 MB
Studio Master, Official Digital Download | Artwork: Front cover

On September 13th, 2019 we will be releasing the album “Cosmos” by freshly and exclusively signed Ambient artist Liam Thomas. The album starts off with an atmospheric intro about the big bang and then leads to the title track “Cosmos”. Groovy and with samples of female vocals Liam Thomas creates the entire cosmos.

“For me, ‘Cosmos’ is about a journey. A journey where we try to truly understand the universe. I believe as humans we have a space between being conscious and being asleep. This is called Hypnagogia. With ‘Cosmos’ I wanted to remove you from reality for a brief moment and enter your body in this state of mind. Personally this feeling represents pure euphoria. How I felt writing ‘Cosmos’.”, Liam Thomas says about the album.

“Vega” – part of the northern constellation Lyra and the fifth brightest star in the sky. Just as shining and beautiful is the track “Vega”. It truly removes you from reality and makes you dream for a bit. The vocal parts are so nicely enwrought that you rather hear them subconsciously.

“Pollux” is a calm but pulsing dance track. But still there’s not need to wake from your trance. It keeps you in that peaceful state of mind.

“Cosmos” is made for those summer nights, sitting outside and gazing at the stars. Your journey through the “Cosmos” will be pure euphoria.

Tracklist:

01. Principium
02. Cosmos
03. Sirius
04. Rigel
05. Arcturus
06. Capella
07. Vega
08. Luyten
09. Pollux
10. Beta Ceti
11. Icarus
12. Ultimus/galaxies

foobar2000 1.3.7 / Dynamic Range Meter 1.1.1
log date: 2019-09-11 06:10:22

––––––––––––––––––––––––––––––––––––––––
Analyzed: Liam Thomas / Cosmos
––––––––––––––––––––––––––––––––––––––––

DR Peak RMS Duration Track
––––––––––––––––––––––––––––––––––––––––
DR14 -1.00 dB -18.16 dB 0:40 01-Principium
DR7 -0.30 dB -10.97 dB 2:50 02-Cosmos
DR6 -0.30 dB -9.82 dB 3:16 03-Sirius
DR7 -0.30 dB -10.33 dB 3:46 04-Rigel
DR8 -0.30 dB -12.31 dB 2:39 05-Arcturus
DR9 -0.30 dB -12.63 dB 4:02 06-Capella
DR8 -0.30 dB -10.99 dB 3:32 07-Vega
DR7 -0.30 dB -10.63 dB 3:43 08-Luyten
DR7 -0.30 dB -10.70 dB 2:38 09-Pollux
DR7 -0.30 dB -10.33 dB 2:42 10-Beta Ceti
DR9 -0.30 dB -12.30 dB 2:09 11-Icarus
DR12 -0.30 dB -15.54 dB 1:16 12-Ultimus/galaxies
––––––––––––––––––––––––––––––––––––––––

Number of tracks: 12
Official DR value: DR9

Samplerate: 44100 Hz
Channels: 2
Bits per sample: 24
Bitrate: 1234 kbps
Codec: FLAC
================================================================================


All thanks go to the original releaser